Мачо и ботан 2 / 22 Jump Street (Фил Лорд, Кристофер Миллер) [2014, США, Боевик, комедия, криминал, WEB-DL (1080p)] Dub [Чистый звук] + Original Eng + Sub eng

Ответить на тему
 

yusuf.0088 ®

Стаж: 4 года

Сообщений: 116

Симпатии: 69

Мачо и ботан 2 / 22 Jump Street
«Копам под прикрытием крыша не нужна»
-- Год выпуска: 2014
Страна: США
Жанр: Боевик, комедия, криминал
Продолжительность: 01:51:57--Перевод: Профессиональный (полное дублирование) [Чистый звук]
Оригинальная дорожка: Английский
Cубтитры: Английские--Режиссер: Фил Лорд, Кристофер Миллер--В ролях: Джона Хилл, Ченнинг Татум, Петер Стормаре, Уайатт Расселл, Эмбер Стивенс, Джиллиан Белл, Айс Кьюб, Ник Офферман, Джимми Татро--Описание: Офицерам Шмидту и Дженко теперь предстоит работать под прикрытием в местном колледже. Однако когда Дженко встречает родственную душу в футбольной команде, а Шмидт проникает в богемную среду, они начинают сомневаться в их товариществе…-- --Качество: WEB-DL (1080p)
Формат: mkv--Видео: MPEG-4 AVC / 3947 Кбит/с, 1912x792
Аудио 1: Русский AC3 2 ch / 384 Кбит/с / 48КГц |Дубляж|
Аудио 2: Английский AC3 2 ch / 384 Кбит/с / 48КГц |Original|

Media Info

Формат : Matroska
Версия формата : Version 2
Размер файла : 3,76 Гбайт
Продолжительность : 1 ч. 51 м.
Общий поток : 4810 Кбит/сек
Название фильма : Мачо.и.Ботан.2.2014.WEB-DL.1080p.NNM-CLUB
Дата кодирования : UTC 2014-09-30 15:40:18
Программа кодирования : mkvmerge v4.9.1 ('Ich will') сборка от Jul 11 2011 23:53:15
Библиотека кодирования : libebml v1.2.1 + libmatroska v1.1.1
Видео
Идентификатор : 1
Формат : AVC
Формат/Информация : Advanced Video Codec
Профиль формата : [email protected]
Параметр CABAC формата : Да
Параметр ReFrames формата : 5 кадров
Идентификатор кодека : V_MPEG4/ISO/AVC
Продолжительность : 1 ч. 51 м.
Битрейт : 3946 Кбит/сек
Ширина : 1912 пикселей
Высота : 792 пикселя
Соотношение сторон : 2,40:1
Режим частоты кадров : Постоянный
Частота кадров : 23,976 кадра/сек
Цветовое пространство : YUV
Субдискретизация насыщенности : 4:2:0
Битовая глубина : 8 бит
Тип развёртки : Прогрессивная
Бит/(Пиксели*Кадры) : 0.109
Размер потока : 3,09 Гбайт (82%)
Заголовок : Мачо.и.Ботан.2.2014.WEB-DL.1080p.NNM-CLUB
Язык : English
Default : Да
Forced : Нет
Основные цвета : BT.709
Характеристики трансфера : BT.709
Коэффициенты матрицы : BT.709
Аудио #1
Идентификатор : 2
Формат : AC-3
Формат/Информация : Audio Coding 3
Расширение режима : CM (complete main)
Параметр Endianness формата : Big
Идентификатор кодека : A_AC3
Продолжительность : 1 ч. 51 м.
Вид битрейта : Постоянный
Битрейт : 384 Кбит/сек
Каналы : 2 канала
Расположение каналов : Front: L R
Частота : 48,0 КГц
Битовая глубина : 16 бит
Метод сжатия : С потерями
Размер потока : 308 Мбайт (8%)
Заголовок : Line
Язык : Russian
Default : Да
Forced : Нет
Аудио #2
Идентификатор : 3
Формат : AC-3
Формат/Информация : Audio Coding 3
Расширение режима : CM (complete main)
Параметр Endianness формата : Big
Идентификатор кодека : A_AC3
Продолжительность : 1 ч. 51 м.
Вид битрейта : Постоянный
Битрейт : 384 Кбит/сек
Каналы : 2 канала
Расположение каналов : Front: L R
Частота : 48,0 КГц
Битовая глубина : 16 бит
Метод сжатия : С потерями
Размер потока : 308 Мбайт (8%)
Язык : English
Default : Нет
Forced : Нет
Текст
Идентификатор : 4
Формат : UTF-8
Идентификатор кодека : S_TEXT/UTF8
Идентификатор кодека/Информация : UTF-8 Plain Text
Язык : English
Default : Нет
Forced : Нет
Меню
00:00:00.000 : :1
00:06:21.131 : :2
00:13:08.162 : :3
00:19:56.153 : :4
00:26:30.172 : :5
00:31:28.136 : :6
00:36:45.203 : :7
00:43:46.123 : :8
00:51:43.183 : :9
00:58:54.156 : :10
01:07:26.167 : :11
01:16:23.120 : :12
01:22:57.139 : :13
01:29:46.172 : :14
01:35:19.130 : :15
01:41:51.147 : :16

Скриншоты



Последний раз редактировалось: yusuf.0088 (2014-10-04 23:56), всего редактировалось 2 раз(а)

Создавать темы 04-Окт-2014 22:17

[Профиль]  [ЛС] 

yusuf.0088 ®

Стаж: 4 года

Сообщений: 116

Симпатии: 69

Опять картинки не грузятся..

Создавать темы 04-Окт-2014 22:18

[Профиль]  [ЛС] 

IIpu3pak

Стаж: 5 лет 8 месяцев

Сообщений: 258

Симпатии: 53

Вот это вещь. Спасибо! А первой части нет случайно с английской дорогой, сабами и в mkv?

Создавать темы 04-Окт-2014 23:51

[Профиль]  [ЛС] 

yusuf.0088 ®

Стаж: 4 года

Сообщений: 116

Симпатии: 69

IIpu3pak, пожалуйста.
Первой части нету к сожалению.

Создавать темы 04-Окт-2014 23:54

[Профиль]  [ЛС] 

jurat_066

Стаж: 5 лет 8 месяцев

Сообщений: 6

Симпатии: 1

litsizyoni zvuk

Создавать темы 05-Окт-2014 13:03

[Профиль]  [ЛС] 

Хондамир

Стаж: 4 года 8 месяцев

Сообщений: 18

Пожалуйста не уходите с раздачи. Спасибо

Создавать темы 09-Окт-2014 18:52

[Профиль]  [ЛС] 
Показать сообщения:    
Ответить на тему

Текущее время: 23-Окт 13:13

Часовой пояс: UTC + 5



Вы не можете начинать темы
Вы не можете отвечать на сообщения
Вы не можете редактировать свои сообщения
Вы не можете удалять свои сообщения
Вы не можете голосовать в опросах
Вы не можете прикреплять файлы к сообщениям
Вы не можете скачивать файлы