А вот и она / And So It Goes (Роб Райнер) [2014 г., Комедия, драма, мелодрама, BDRip 720]

Ответить на тему
 

Страх ®

Стаж: 4 года

Сообщений: 1131

Симпатии: 448

А вот и она / And So It Goes
«Миллион причин не любить Орена. Спроси любого»
- Год выпуска: 2014
Страна: США
Жанр: Комедия, драма, мелодрама
Продолжительность:01:29:39
Перевод: Профессиональный (Дублированный)
Режиссер: Роб Райнер-В ролях: Майкл Дуглас, Дайан Китон, Стерлинг Джеринс, Энни Парисс, Остин Лайзи, Майкл Терра, Симпкинс Сойер, Максвелл Симкинс, Морис Джонс, Йайа ДаКоста-Описание: Жизнь закоренелого эгоиста в одночасье меняется, когда он вдруг знакомится со своей внучкой, о существовании которой даже не подозревал-Рейтинг:
     -Качество: BDRIP 720
Формат: Avi
Видео кодек: Xvid
Аудио кодек: AC3
Видео: 720x320 25fps 1874kbps
Аудио: Dolby AC3 48000Hz 6ch 448kbps-

Media Info

General
Complete name : D:\Tracker\Movie Files\A_Vot_i_Ona_2014_D.BDRip_1.46Gb_tdw.avi
Format : AVI
Format/Info : Audio Video Interleave
File size : 1.46 GiB
Duration : 1h 29mn
Overall bit rate : 2 332 Kbps
Writing application : VirtualDubMod 1.5.10.2 (build 2540/release)
Writing library : VirtualDubMod build 2540/release
Video
ID : 0
Format : MPEG-4 Visual
Format profile : Advanced Simple@L5
Format settings, BVOP : Yes
Format settings, QPel : No
Format settings, GMC : No warppoints
Format settings, Matrix : Custom
Codec ID : XVID
Codec ID/Hint : XviD
Duration : 1h 29mn
Bit rate : 1 875 Kbps
Width : 720 pixels
Height : 320 pixels
Display aspect ratio : 2.25:1
Frame rate : 25.000 fps
Color space : YUV
Chroma subsampling : 4:2:0
Bit depth : 8 bits
Scan type : Progressive
Compression mode : Lossy
Bits/(Pixel*Frame) : 0.325
Stream size : 1.17 GiB (80%)
Writing library : XviD 73
Audio
ID : 1
Format : AC-3
Format/Info : Audio Coding 3
Mode extension : CM (complete main)
Format settings, Endianness : Big
Codec ID : 2000
Duration : 1h 29mn
Bit rate mode : Constant
Bit rate : 448 Kbps
Channel(s) : 6 channels
Channel positions : Front: L C R, Side: L R, LFE
Sampling rate : 48.0 KHz
Bit depth : 16 bits
Compression mode : Lossy
Stream size : 287 MiB (19%)
Alignment : Split accross interleaves
Interleave, duration : 40 ms (1.00 video frame)
Interleave, preload duration : 500 ms
-

Миниатюры

-

Скриншоты

Создавать темы 05-Окт-2014 13:25

[Профиль]  [ЛС] 
Показать сообщения:    
Ответить на тему

Текущее время: 23-Окт 09:33

Часовой пояс: UTC + 5



Вы не можете начинать темы
Вы не можете отвечать на сообщения
Вы не можете редактировать свои сообщения
Вы не можете удалять свои сообщения
Вы не можете голосовать в опросах
Вы не можете прикреплять файлы к сообщениям
Вы не можете скачивать файлы