Божий карман / God's Pocket (Джон Слэттери) [2014 г., драма, HDRip]

Ответить на тему
 

igor1968 ®

Стаж: 5 лет 9 месяцев

Сообщений: 366

Симпатии: 197

Божий карман / God's Pocket «The only thing they can't forgive is not being from ... God's Pocket» Год выпуска: 2014
Страна:
Жанр: драма
Продолжительность: 01:28:40.940
Перевод: Любительский (двухголосый)
Режиссер: Джон Слэттери
В ролях: Филип Сеймур Хоффман
Ричард Дженкинс
Кристина Хендрикс
Джон Туртурро
Эдди Марсан
Калеб Лэндри Джонс
Джек О’Коннелл
Билл Бюэлл
Ребекка Клинг
Дэвид Аписелла
...
Когда сумасшедший пасынок Микки по имени Леон погибает из-за несчастного случая, никто из живущих по соседству не скорбит о нем. Микки пытается похоронить плохие новости вместе с его телом, но все усложняется, когда мать мальчика решает выяснить всю правду о случившемся…- -Качество: HDRip
Формат: AVI
Видео кодек: XviD
Аудио кодек: AC3
Видео: 720x304 (2.37:1), 23.976 fps, XviD build 50 ~1749 kbps avg, 0.33 bit/pixel
Аудио: 48 kHz, AC3 Dolby Digital, 3/2 (L,C,R,l,r) + LFE ch, ~448.00 kbps avg-

MediaInfo

General
Complete name : Bozhij.karman.2014.L2.HDRip.1400Mb.avi
Format : AVI
Format/Info : Audio Video Interleave
File size : 1.37 GiB
Duration : 1h 28mn
Overall bit rate : 2 206 Kbps
Writing application : VirtualDubMod 1.5.10.2 (build 2540/release)
Writing library : VirtualDubMod build 2540/release
Video
ID : 0
Format : MPEG-4 Visual
Format profile : Advanced [email protected]
Format settings, BVOP : Yes
Format settings, QPel : No
Format settings, GMC : No warppoints
Format settings, Matrix : Custom
Codec ID : XVID
Codec ID/Hint : XviD
Duration : 1h 28mn
Bit rate : 1 749 Kbps
Width : 720 pixels
Height : 304 pixels
Display aspect ratio : 2.35:1
Frame rate : 23.976 fps
Color space : YUV
Chroma subsampling : 4:2:0
Bit depth : 8 bits
Scan type : Progressive
Compression mode : Lossy
Bits/(Pixel*Frame) : 0.333
Stream size : 1.08 GiB (79%)
Writing library : XviD 1.2.1 (UTC 2008-12-04)
Audio
ID : 1
Format : AC-3
Format/Info : Audio Coding 3
Mode extension : CM (complete main)
Format settings, Endianness : Big
Codec ID : 2000
Duration : 1h 28mn
Bit rate mode : Constant
Bit rate : 448 Kbps
Channel(s) : 6 channels
Channel positions : Front: L C R, Side: L R, LFE
Sampling rate : 48.0 KHz
Bit depth : 16 bits
Compression mode : Lossy
Stream size : 284 MiB (20%)
Alignment : Split accross interleaves
Interleave, duration : 42 ms (1.00 video frame)
Interleave, preload duration : 500 ms
- - -

Создавать темы 05-Окт-2014 14:58

[Профиль]  [ЛС] 

Oybekg

Стаж: 3 года 10 месяцев

Сообщений: 9

СПАСИБО!

Создавать темы 05-Окт-2014 15:39

[Профиль]  [ЛС] 

azizaliev

Стаж: 5 лет 1 месяц

Сообщений: 27

Кто нибудь смотрел фильм как отпишитесь парни

Создавать темы 06-Окт-2014 11:09

[Профиль]  [ЛС] 

Mehti

Стаж: 5 лет 7 месяцев

Сообщений: 140

Симпатии: 17

Фильм мне очень понравился - особенно тётя в красном!

Создавать темы 08-Окт-2014 15:26

[Профиль]  [ЛС] 
Показать сообщения:    
Ответить на тему

Текущее время: 17-Дек 15:04

Часовой пояс: UTC + 5



Вы не можете начинать темы
Вы не можете отвечать на сообщения
Вы не можете редактировать свои сообщения
Вы не можете удалять свои сообщения
Вы не можете голосовать в опросах
Вы не можете прикреплять файлы к сообщениям
Вы не можете скачивать файлы