Человек со звезды / You Who Came From the Stars [21/21] (Jang Tae Yoo) [2013, фантастика, романтика, TVRip] [RAW] [400p] DVO GREEN TEA

Страницы :  1, 2  След.

Ответить на тему
 

Zab ®

Стаж: 6 лет 3 месяца

Сообщений: 476

Симпатии: 424

Человек со звезды / You Who Came From the Stars / My Love From Another Star- Страна: Корея
Год выпуска: 2013
Жанр: Романтика, комедия, мелодрама
Продолжительность: 21 серия
Перевод: Закадровый (двухголосый) Игорь Николаенков, Ульяна Громова (1-15 серии) и Ирина Битрих (с 16 серии)-Режиссер: Jang Tae Yoo
В ролях: Jun Ji Hyun as Chun Song Yi (28, top actress/university student)
Kim Hyun Soo as young Chun Song Yi
Kim Soo Hyun as Do Min Joon (alien/university professor)
Park Hae Jin as Lee Hwi Kyung (28, youngest son of S&C Group)
Jo Seung Hyun (조승현) as young Hwi Kyung
Yoo In Na as Yoo Se Mi (28, supporting actress)-Описание: До Мин Чжун - неземной красавчик в прямом смысле этого слова. Он приземлился на летающей тарелке 400 лет тому назад, в эпоху Чосон, и остался жить на земле. Он смотрит на человечество с высоты своих суперменских сверхспособностей, но все меняется, когда он встречает надменную красавицу, известную актрису Чон Сон И.
Перевод описания: Харли-Доп.информация: Русские субтитры фансаб-группы Мания
Релиз: подготовлен группой GREEN TEA
Оформление постера: Юрий Миркин
Рип: Елена Клёпкина-Качество: TVRip
Формат: AVI
Видео кодек: XviD
Аудио кодек: MP3
Видео: 720x400, 1500 Кбит/с, 29,970
Аудио: 192 Кбит/с, 48000 Гц, 2 канала

MI

General
Complete name                            : D:\[Movies]\[GREEN TEA] Человек со звезды [720x400]\[GREEN TEA] Человек со звезды [720x400] ep 01.avi
Format                                   : AVI
Format/Info                              : Audio Video Interleave
File size                                : 718 MiB
Duration                                 : 59mn 18s
Overall bit rate                         : 1 693 Kbps
Writing application                      : VirtualDubMod 1.5.10.2 (build 2540/release)
Writing library                          : VirtualDubMod build 2540/release
Video
ID                                       : 0
Format                                   : MPEG-4 Visual
Format profile                           : Advanced [email protected]
Format settings, BVOP                    : 1
Format settings, QPel                    : No
Format settings, GMC                     : No warppoints
Format settings, Matrix                  : Default (H.263)
Codec ID                                 : XVID
Codec ID/Hint                            : XviD
Duration                                 : 59mn 18s
Bit rate                                 : 1 490 Kbps
Width                                    : 720 pixels
Height                                   : 400 pixels
Display aspect ratio                     : 16:9
Frame rate                               : 29.970 fps
Color space                              : YUV
Chroma subsampling                       : 4:2:0
Bit depth                                : 8 bits
Scan type                                : Progressive
Compression mode                         : Lossy
Bits/(Pixel*Frame)                       : 0.173
Stream size                              : 632 MiB (88%)
Writing library                          : XviD 1.2.0.dev47 (UTC 2006-11-01)
Audio
ID                                       : 1
Format                                   : MPEG Audio
Format version                           : Version 1
Format profile                           : Layer 3
Mode                                     : Joint stereo
Mode extension                           : MS Stereo
Codec ID                                 : 55
Codec ID/Hint                            : MP3
Duration                                 : 59mn 17s
Bit rate mode                            : Constant
Bit rate                                 : 192 Kbps
Channel(s)                               : 2 channels
Sampling rate                            : 48.0 KHz
Compression mode                         : Lossy
Stream size                              : 81.4 MiB (11%)
Alignment                                : Aligned on interleaves
Interleave, duration                     : 33 ms (1.00 video frame)
Interleave, preload duration             : 504 ms

Скриншоты

С Сабами можете скачатьтут


Последний раз редактировалось: Zab (2015-03-05 16:07), всего редактировалось 1 раз

Создавать темы 08-Окт-2014 08:41

[Профиль]  [ЛС] 

Baxa2009

Стаж: 5 лет 4 месяца

Сообщений: 42

Симпатии: 15

почему не качает где скорость сижу неделя. у меня на трек-р сидов есть а торрент сидов не показивает дайте до качать фильм.https://tas-ix.net/images/smiles/tx.gif

Создавать темы 16-Окт-2014 20:54

[Профиль]  [ЛС] 

Dvx

Стаж: 5 лет 7 месяцев

Сообщений: 38

ООО)) ну наконец-то дорамки с озвучкой!)) крутООо!))) спасибо!)

Создавать темы 01-Ноя-2014 20:18

[Профиль]  [ЛС] 

Нигина

Стаж: 4 года 1 месяц

Сообщений: 17

Люди раздайте пожалуйста

Создавать темы 09-Янв-2015 13:41

[Профиль]  [ЛС] 

Zab ®

Стаж: 6 лет 3 месяца

Сообщений: 476

Симпатии: 424

C Сабами можете скачать тут: https://tas-ix.net/viewtopic.php?t=89869

Создавать темы 15-Янв-2015 02:10

[Профиль]  [ЛС] 

Ичиго

Стаж: 6 лет 6 месяцев

Сообщений: 7

дайте скорости

Создавать темы 10-Фев-2015 11:12

[Профиль]  [ЛС] 

Deviling

Стаж: 2 года 3 месяца

Сообщений: 82

Симпатии: 136

$part@, спасибо Вам огромое за раздачу. свершилось!))) я докачала не достаюшие мне серии)))

Создавать темы 08-Июн-2015 17:41

[Профиль]  [ЛС] 

pensar

Стаж: 5 лет 5 месяцев

Сообщений: 21

Симпатии: 1

Дайте скорости

Создавать темы 24-Авг-2015 19:48

[Профиль]  [ЛС] 

pensar

Стаж: 5 лет 5 месяцев

Сообщений: 21

Симпатии: 1

Пожалуйста встаньте на раздачу. И добавьте скорости.
Спасибо.

Создавать темы 25-Авг-2015 13:54

[Профиль]  [ЛС] 

pensar

Стаж: 5 лет 5 месяцев

Сообщений: 21

Симпатии: 1

Встаньте на раздачу скачавшие.

Создавать темы 26-Авг-2015 18:39

[Профиль]  [ЛС] 

pensar

Стаж: 5 лет 5 месяцев

Сообщений: 21

Симпатии: 1

Закачайте сериал Вера Корейские вот ссылка для скачивания
http://rutracker.org/forum/viewtopic.php?t=4159210

Создавать темы 27-Авг-2015 19:32

[Профиль]  [ЛС] 

Deviling

Стаж: 2 года 3 месяца

Сообщений: 82

Симпатии: 136

948679Закачайте сериал Вера Корейские вот ссылка для скачивания
http://rutracker.org/forum/viewtopic.php?t=4159210
Этот сериал тут был выложен в двух вариантах
http://tas-ix.net/viewtopic.php?t=51874
http://tas-ix.net/viewtopic.php?t=57736
Оба они в архиве, так что врядли кто то будет качать...

Создавать темы 27-Авг-2015 22:06

[Профиль]  [ЛС] 

pensar

Стаж: 5 лет 5 месяцев

Сообщений: 21

Симпатии: 1

42427
Рег.: 22-Фев-2012
Сообщений: 16
Встаньте на раздачу кто скачал.

Создавать темы 28-Авг-2015 18:20

[Профиль]  [ЛС] 

pensar

Стаж: 5 лет 5 месяцев

Сообщений: 21

Симпатии: 1

Так в этом варианте с хорошей озвучкой и качеством. Скачайте если не сложно.
http://rutracker.org/forum/viewtopic.php?t=4159210

Создавать темы 29-Авг-2015 08:24

[Профиль]  [ЛС] 

Zab ®

Стаж: 6 лет 3 месяца

Сообщений: 476

Симпатии: 424

948865Так в этом варианте с хорошей озвучкой и качеством. Скачайте если не сложно.
http://rutracker.org/forum/viewtopic.php?t=4159210
Вот лучше вариант: http://tracker.green-tea.tv/viewtopic.php?t=437
З.Ы: Если вам нужны в озвучке от гринти, лучше скачивайте с самого трекера green-tea, там релизы выходят раньше всех остальных (можн. сказать первоисточник).

Создавать темы 29-Авг-2015 09:54

[Профиль]  [ЛС] 
Показать сообщения:    
Ответить на тему

Текущее время: 18-Авг 15:56

Часовой пояс: UTC + 5



Вы не можете начинать темы
Вы не можете отвечать на сообщения
Вы не можете редактировать свои сообщения
Вы не можете удалять свои сообщения
Вы не можете голосовать в опросах
Вы не можете прикреплять файлы к сообщениям
Вы не можете скачивать файлы