Супербои в повседневности / Inou Battle wa Nichijou-kei no Naka de ( Оцука Масахико) [TV] [12 из 12] [Без хардсаба] [RUS(int)] [2014 г., приключения, комедия, мистика, WEBRip] [720p] [Inspector_Gadjet & Гамлетка Цезаревна]

Ответить на тему
 

Азиз87 ®

Стаж: 5 лет 1 месяц

Сообщений: 752

Симпатии: 143

Супербои в повседневности / Inou Battle wa Nichijou-kei no Naka de-
Год выпуска: 2014
Страна: Япония
Жанр: приключения, комедия, мистика
Продолжительность: 12 эп. по 24 мин.
Выпуск: c 07.10.2014-Режиссёр: Оцука Масахико
Автор оригинала: Нодзоми Кота
Студия: -Описание:
Полгода назад четыре члена литературного клуба и ученица начальной школы, племянница их классного руководителя, получили сверхъестественные силы. Андо Дзюрай, член клуба, стал способным вызывать чёрное пламя. Девушки получили разные могущественные способности: Томоё смогла замедлять, ускорять или останавливать время, Хатоко — управлять пятью элементами (землёй, водой, огнём, ветром и светом), маленькая Тифую смогла создавать предметы, а Саюми — чинить то, что сломалось или исцелять живых существ. Однако с тех пор, как они получили эти силы, в их повседневной жизни ничего существенно не изменилось. Зачем же тогда они их получили? Станет ли их жизнь полной героизма и такой фантастической, какой они её представляли с появлением этих сил? World Art-Качество: WEBRip
Формат видео: MP4
Видео: x264 (8bit), 1280х720 (16:9), ~1 700 kbps, 23.976 fps
Аудио Russian: ААС, 48.0 kHz, ~192 Kbps, 2ch - в составе контейнера - Inspector_Gadjet & Гамлетка Цезаревна-

Подробные тех. данные

General
Complete name                            : [AniDub]_Inou_Battle_wa_Nichijou-kei_no_Naka de_01_[1280x720_x264]_[Inspector_Gadjet_and_Hamletka Cezarevna].mp4
Format                                   : MPEG-4
Format profile                           : Base Media
Codec ID                                 : isom
File size                                : 281 MiB
Duration                                 : 23mn 55s
Overall bit rate mode                    : Variable
Overall bit rate                         : 1 641 Kbps
Encoded date                             : UTC 2014-10-06 23:16:17
Tagged date                              : UTC 2014-10-06 23:16:17
Writing application                      : Yamb 2.1.0.0 [http://yamb.unite-video.com]
Video
ID                                       : 1
Format                                   : AVC
Format/Info                              : Advanced Video Codec
Format profile                           : [email protected]
Format settings, CABAC                   : Yes
Format settings, ReFrames                : 4 frames
Codec ID                                 : avc1
Codec ID/Info                            : Advanced Video Coding
Duration                                 : 23mn 54s
Bit rate                                 : 1 441 Kbps
Maximum bit rate                         : 11.4 Mbps
Width                                    : 1 280 pixels
Height                                   : 720 pixels
Display aspect ratio                     : 16:9
Frame rate mode                          : Constant
Frame rate                               : 23.976 fps
Color space                              : YUV
Chroma subsampling                       : 4:2:0
Bit depth                                : 8 bits
Scan type                                : Progressive
Bits/(Pixel*Frame)                       : 0.065
Stream size                              : 246 MiB (88%)
Writing library                          : x264 core 142 r2479 dd79a61
Encoding settings                        : cabac=1 / ref=3 / deblock=1:0:0 / analyse=0x1:0x111 / me=hex / subme=7 / psy=1 / psy_rd=1.00:0.00 / mixed_ref=1 / me_range=16 / chroma_me=1 / trellis=1 / 8x8dct=0 / cqm=0 / deadzone=21,11 / fast_pskip=1 / chroma_qp_offset=-2 / threads=12 / lookahead_threads=2 / sliced_threads=0 / nr=0 / decimate=1 / interlaced=0 / bluray_compat=0 / constrained_intra=0 / bframes=16 / b_pyramid=2 / b_adapt=1 / b_bias=0 / direct=1 / weightb=1 / open_gop=0 / weightp=2 / keyint=240 / keyint_min=1 / scenecut=40 / intra_refresh=0 / rc_lookahead=40 / rc=crf / mbtree=1 / crf=20.0 / qcomp=0.60 / qpmin=0 / qpmax=69 / qpstep=4 / ip_ratio=1.40 / aq=1:1.00
Encoded date                             : UTC 2014-10-06 22:35:37
Tagged date                              : UTC 2014-10-06 23:16:21
Color primaries                          : BT.709
Transfer characteristics                 : BT.709
Matrix coefficients                      : BT.709
Audio
ID                                       : 2
Format                                   : AAC
Format/Info                              : Advanced Audio Codec
Format profile                           : LC
Codec ID                                 : 40
Duration                                 : 23mn 55s
Bit rate mode                            : Variable
Bit rate                                 : 196 Kbps
Maximum bit rate                         : 231 Kbps
Channel count                            : 2 channels
Channel positions                        : Front: L R
Sampling rate                            : 48.0 KHz
Compression mode                         : Lossy
Stream size                              : 33.6 MiB (12%)
Title                                    : Alien
Language                                 : Russian
Encoded date                             : UTC 2014-10-06 23:16:20
Tagged date                              : UTC 2014-10-06 23:16:21

Скриншоты



Последний раз редактировалось: Азиз87 (2015-01-11 22:49), всего редактировалось 4 раз(а)

Создавать темы 08-Окт-2014 22:26

[Профиль]  [ЛС] 

Топик был перенесен из форума Тестовый форум в форум Аниме онгоинги
Азиз87

Создавать темы 09-Окт-2014 06:24

 

Азиз87 ®

Стаж: 5 лет 1 месяц

Сообщений: 752

Симпатии: 143

2 серия.

Создавать темы 15-Окт-2014 12:24

[Профиль]  [ЛС] 

Азиз87 ®

Стаж: 5 лет 1 месяц

Сообщений: 752

Симпатии: 143

3 серия.

Создавать темы 24-Окт-2014 03:35

[Профиль]  [ЛС] 

SNIL

Стаж: 5 лет 11 месяцев

Сообщений: 2624

Симпатии: 341

В связи не способностью релизера продолжать обновление данного онгоинга, релиз перемешён в раздел HD, HDTVRip.
Дальнейшего обновления не будет!
Если у кого есть желание подхватить это аниме, можете оформлять релиз!

Создавать темы 08-Ноя-2014 23:00

[Профиль]  [ЛС] 

Азиз87 ®

Стаж: 5 лет 1 месяц

Сообщений: 752

Симпатии: 143

Добавлены 4-12 серии. Релиз завершен.
Раздаю по возможности и приятного всем просмотра.

Создавать темы 11-Янв-2015 22:51

[Профиль]  [ЛС] 
Показать сообщения:    
Ответить на тему

Текущее время: 16-Дек 10:21

Часовой пояс: UTC + 5



Вы не можете начинать темы
Вы не можете отвечать на сообщения
Вы не можете редактировать свои сообщения
Вы не можете удалять свои сообщения
Вы не можете голосовать в опросах
Вы не можете прикреплять файлы к сообщениям
Вы не можете скачивать файлы