Психопаспорт [ТВ-2] / Psycho-Pass 2 (Сиотани Наоёси) [TV] [без хардсаба] [11 из 11] [RUS(int)] [2014 г., триллер, фантастика, HDTVRip] [720p]

Страницы :  1, 2  След.

Ответить на тему
 

FireHowler ®

Стаж: 4 года 4 месяца

Сообщений: 270

Симпатии: 153

Психопаспорт [ТВ-2] | Psycho-Pass 2 -Год выпуска: 2014
Страна: Япония
Жанр: триллер, фантастика.-Режиссёр: Сиотани Наоёси.
Студия: Tatsunoko (подробнее...)
-Перевод:
Озвучка: двухголосая (муж./жен.) Zendos & Eladiel-Описание: При трагических обстоятельствах узнав об истинной природе Сивиллы, инспектор Аканэ Цунэмори принимает решение подчиниться системе, искренне веря, что в конце концов человечность и правопорядок смогут сосуществовать в гармонии.
После дела Макишимы и исчезновения Когами суматоха в Департаменте утихла, и город вернулся к прежней размеренно управляемой жизни. Инспектор Цунэмори теперь — член нового подразделения полиции, а преследование и задержание преступников для нее отныне привычное дело. Казалось бы, жизнь вернулась в свою колею, но Аканэ пока не подозревает, что скоро она столкнется с настоящим чудовищем, которое сотрясет Систему до самого ее основания... World Art.-Качество: HDTVRip | Формат: MP4 | Тип видео: без хардсаба | Продолжительность: ТВ (11 эп.), 25 мин. | Видео: [Leopard-Raws]
Видео кодек: H.264
Аудио кодек: AAC
Видео: H.264; 1280x720; ~1974Kbps, 23.976fps; (8 bit)
Аудио: RUS, AAC; 48000Hz; ~192Kbps (2ch);

MediaInfo

Общее
Формат : MPEG-4
Профиль формата : Base Media
Идентификатор кодека : isom
Размер файла : 349 Мбайт
Продолжительность : 22 м.
Режим общего битрейта : Переменный
Общий поток : 2169 Кбит/сек
Дата кодирования : UTC 2014-10-10 02:38:27
Дата пометки : UTC 2014-10-10 02:38:27
Видео
Идентификатор : 1
Формат : AVC
Формат/Информация : Advanced Video Codec
Профиль формата : [email protected]
Параметр CABAC формата : Да
Параметр ReFrames формата : 4 кадра
Идентификатор кодека : avc1
Идентификатор кодека/Информация : Advanced Video Coding
Продолжительность : 22 м.
Битрейт : 1974 Кбит/сек
Максимальный битрейт : 15,7 Мбит/сек
Ширина : 1280 пикселей
Высота : 720 пикселей
Соотношение сторон : 16:9
Режим частоты кадров : Постоянный
Частота кадров : 23,976 кадра/сек
Цветовое пространство : YUV
Субдискретизация насыщенности : 4:2:0
Битовая глубина : 8 бит
Тип развёртки : Прогрессивная
Бит/(Пиксели*Кадры) : 0.089
Размер потока : 318 Мбайт (91%)
Заголовок : 264:[email protected]
Библиотека кодирования : x264 core 129 r2245+729M 1a52e03
Настройки программы : cabac=1 / ref=4 / deblock=1:1:-1 / analyse=0x3:0x113 / me=umh / subme=9 / psy=1 / fade_compensate=0.00 / psy_rd=1.00:0.00 / mixed_ref=1 / me_range=24 / chroma_me=1 / trellis=2 / 8x8dct=1 / cqm=0 / deadzone=21,11 / fast_pskip=1 / chroma_qp_offset=-2 / threads=8 / lookahead_threads=1 / sliced_threads=0 / nr=0 / decimate=1 / interlaced=0 / bluray_compat=0 / constrained_intra=0 / fgo=0 / bframes=9 / b_pyramid=2 / b_adapt=2 / b_bias=0 / direct=1 / weightb=1 / open_gop=0 / weightp=2 / keyint=240 / keyint_min=24 / scenecut=40 / intra_refresh=0 / rc=crf / mbtree=0 / crf=18.0 / qcomp=0.72 / qpmin=0 / qpmax=69 / qpstep=4 / ip_ratio=1.40 / pb_ratio=1.30 / aq=1:0.85
Дата кодирования : UTC 2014-10-10 02:38:27
Дата пометки : UTC 2014-10-10 02:38:29
Основные цвета : BT.709
Характеристики трансфера : BT.709
Коэффициенты матрицы : BT.709
Аудио
Идентификатор : 2
Формат : AAC
Формат/Информация : Advanced Audio Codec
Профиль формата : LC
Идентификатор кодека : 40
Продолжительность : 22 м.
Вид битрейта : Переменный
Битрейт : 192 Кбит/сек
Максимальный битрейт : 222 Кбит/сек
Каналы : 2 канала
Расположение каналов : Front: L R
Частота : 48,0 КГц
Метод сжатия : С потерями
Размер потока : 30,8 Мбайт (9%)
Язык : Japanese
Дата кодирования : UTC 2014-10-09 18:33:58
Дата пометки : UTC 2014-10-10 02:38:29

Скриншоты




Последний раз редактировалось: FireHowler (2014-12-27 20:33), всего редактировалось 12 раз(а)

Создавать темы 11-Окт-2014 00:27

[Профиль]  [ЛС] 

FireHowler ®

Стаж: 4 года 4 месяца

Сообщений: 270

Симпатии: 153

Добавлена 2 серия и озвучка для первой серии.

Создавать темы 17-Окт-2014 22:39

[Профиль]  [ЛС] 

FireHowler ®

Стаж: 4 года 4 месяца

Сообщений: 270

Симпатии: 153

Добавил 1 и 3 серию с русской озвучкой.

Создавать темы 25-Окт-2014 05:01

[Профиль]  [ЛС] 

Азиз87

Стаж: 4 года 10 месяцев

Сообщений: 752

Симпатии: 143

П премодерация
888584Добавил 1 и 3 серию с русской озвучкой.
-http://rutracker.org/forum/viewtopic.php?t=4841942 - 1 серия без звука. 2-3 источник не известен?
-шапка с тегом RUS(ext) актуальна?

Создавать темы 25-Окт-2014 07:36

[Профиль]  [ЛС] 

FireHowler ®

Стаж: 4 года 4 месяца

Сообщений: 270

Симпатии: 153

Создавать темы 25-Окт-2014 17:03

[Профиль]  [ЛС] 

FireHowler ®

Стаж: 4 года 4 месяца

Сообщений: 270

Симпатии: 153

Добавлена 4 серия.
Название первой изменил на аналогичное остальным сериям. Перезалейте торрент-файл и обновите хэш.

Создавать темы 31-Окт-2014 23:43

[Профиль]  [ЛС] 

FireHowler ®

Стаж: 4 года 4 месяца

Сообщений: 270

Симпатии: 153

Добавлена 5 серия.

Создавать темы 07-Ноя-2014 23:55

[Профиль]  [ЛС] 

Justice

Стаж: 4 года 8 месяцев

Сообщений: 16

только у меня 1 серия без озвучки?

Создавать темы 09-Ноя-2014 23:06

[Профиль]  [ЛС] 

FireHowler ®

Стаж: 4 года 4 месяца

Сообщений: 270

Симпатии: 153

893104только у меня 1 серия без озвучки?
Приношу свои извинения, добавил озвучку внешним файлом.

Создавать темы 10-Ноя-2014 18:48

[Профиль]  [ЛС] 

FireHowler ®

Стаж: 4 года 4 месяца

Сообщений: 270

Симпатии: 153

Добавил 6 серию.

Создавать темы 16-Ноя-2014 00:50

[Профиль]  [ЛС] 

FireHowler ®

Стаж: 4 года 4 месяца

Сообщений: 270

Симпатии: 153

Добавил 7 и 8 серию.

Создавать темы 02-Дек-2014 21:51

[Профиль]  [ЛС] 

FireHowler ®

Стаж: 4 года 4 месяца

Сообщений: 270

Симпатии: 153

Добавил 9 серию.

Создавать темы 10-Дек-2014 18:07

[Профиль]  [ЛС] 

FireHowler ®

Стаж: 4 года 4 месяца

Сообщений: 270

Симпатии: 153

Добавил 10 серию.

Создавать темы 18-Дек-2014 08:59

[Профиль]  [ЛС] 

beeschunmo

Стаж: 3 года 9 месяцев

Сообщений: 143

Симпатии: 11

а можете залить первый сезон?

Создавать темы 18-Дек-2014 12:59

[Профиль]  [ЛС] 

FireHowler ®

Стаж: 4 года 4 месяца

Сообщений: 270

Симпатии: 153

902999а можете залить первый сезон?
Он есть на трекере в хорошем качестве. https://tas-ix.net/viewtopic.php?t=55592

Создавать темы 19-Дек-2014 13:57

[Профиль]  [ЛС] 
Показать сообщения:    
Ответить на тему

Текущее время: 23-Сен 03:38

Часовой пояс: UTC + 5



Вы не можете начинать темы
Вы не можете отвечать на сообщения
Вы не можете редактировать свои сообщения
Вы не можете удалять свои сообщения
Вы не можете голосовать в опросах
Вы не можете прикреплять файлы к сообщениям
Вы не можете скачивать файлы