Паразит: учение о жизни / Parasyte - the maxim / Kiseijuu: Sei no Kakuritsu [TV] [24 из 24] [Без хардсаба] [RUS(int)] [2014 г., приключения, ужасы, фантастика, HDTVRip] [720p]

Страницы :  1, 2  След.

Ответить на тему
 

FireHowler ®

Стаж: 4 года 5 месяцев

Сообщений: 270

Симпатии: 153

Паразит- Страна: Япония
Год выпуска: 2014 г.
Жанр: приключения, ужасы, фантастика
Тип: TV
Продолжительность: 24 эп, ~23 мин. серия
Режиссер: Симидзу Кэнъити
Студия: Madhouse Studios-Описание: Однажды летом, в одном из городков Японии, пошел странный "снег". Казалось, будто это небольшие, пушистые шарики опустились на землю. Они выпали в одну ночь, не оставив за собой и следа, и никто и никогда не узнал бы об этом странном явлении, если бы на этом странности закончились. Но, как оказалось, это было только начало. Последствия этих осадков в дальнейшем повлияли на судьбу обычного японского подростка, Шиничи Изуми... И на судьбу всего человечества.
Информационные ссылки: World-Art | ANN | MAL | AniDB-Качество: HDTVRip
Тип релиза: Без хардсаба
Формат видео: MP4
Наличие линковки: Нет
Автор рипа: HorribleSubs
Видео: H264 (8 bit), 1280x720 (16:9), 1 776 kbps, 23,976 fps
Аудио: AAC, 128 kbps, 48 Khz, 2 ch | Язык Русский (в составе контейнера) ; Озвучка: Многоголосая, закадровая. Студия KANSAI

Подробные тех. данные

GeneralComplete name : C:\Sergey\Video\Anime\KANSAI\!correct\Kiseijuu [KANSAI]\[KANSAI] Kiseijuu - Sei no Kakuritsu - 01 (1280x720).mp4Format : MPEG-4Format profile : Base MediaCodec ID : isomFile size : 311 MiBDuration : 22mn 52sOverall bit rate mode : VariableOverall bit rate : 1 901 KbpsEncoded date : UTC 2014-10-11 00:57:03Tagged date : UTC 2014-10-11 00:57:03Writing application : Yamb 2.1.0.0
VideoID : 1Format : AVCFormat/Info : Advanced Video CodecFormat profile : [email protected] settings, CABAC : YesFormat settings, ReFrames : 6 framesCodec ID : avc1Codec ID/Info : Advanced Video CodingDuration : 22mn 52sBit rate : 1 776 KbpsMaximum bit rate : 6 190 KbpsWidth : 1 280 pixelsHeight : 720 pixelsDisplay aspect ratio : 16:9Frame rate mode : ConstantFrame rate : 23.976 fpsColor space : YUVChroma subsampling : 4:2:0Bit depth : 8 bitsScan type : ProgressiveBits/(Pixel*Frame) : 0.080Stream size : 289 MiB (93%)Writing library : x264 core 120 r2120 0c7dab9Encoding settings : cabac=1 / ref=6 / deblock=1:1:1 / analyse=0x3:0x113 / me=umh / subme=8 / psy=1 / psy_rd=0.40:0.00 / mixed_ref=1 / me_range=16 / chroma_me=1 / trellis=1 / 8x8dct=1 / cqm=0 / deadzone=21,11 / fast_pskip=1 / chroma_qp_offset=-2 / threads=4 / sliced_threads=0 / nr=0 / decimate=1 / interlaced=0 / bluray_compat=0 / constrained_intra=0 / bframes=3 / b_pyramid=2 / b_adapt=2 / b_bias=0 / direct=3 / weightb=1 / open_gop=0 / weightp=2 / keyint=250 / keyint_min=23 / scenecut=40 / intra_refresh=0 / rc_lookahead=50 / rc=2pass / mbtree=1 / bitrate=1776 / ratetol=1.0 / qcomp=0.60 / qpmin=0 / qpmax=69 / qpstep=4 / cplxblur=20.0 / qblur=0.5 / vbv_maxrate=3552 / vbv_bufsize=8880 / nal_hrd=none / ip_ratio=1.40 / aq=1:0.60Encoded date : UTC 2014-10-11 00:57:03Tagged date : UTC 2014-10-11 00:57:09
AudioID : 2Format : AACFormat/Info : Advanced Audio CodecFormat profile : LCCodec ID : 40Duration : 22mn 52sBit rate mode : VariableBit rate : 128 KbpsMaximum bit rate : 135 KbpsChannel(s) : 2 channelsChannel positions : Front: L RSampling rate : 48.0 KHzCompression mode : LossyStream size : 20.9 MiB (7%)Title : KansaiLanguage : RussianEncoded date : UTC 2014-10-11 00:57:09Tagged date : UTC 2014-10-11 00:57:09

Скриншоты



Список эпизодов

01. Метаморфоз
02. Демон во плоти
03. Пир
04. Растрепанные волосы
05. Незнакомец
06. Новый восход
07. Темная ночь
08. Предел
09. За гранью добра и зла
10. Что за дикий мир
11. Синяя птица
12. Сердце.
13. Привет, печаль.
14. Эгоист.
15. Беда, что надвигается
16. Счастливая Семья
17. Шерлок Холмс при смерти
18. Больше, чем человек
19. Хладнокровие
20. Преступление и наказание
21. Секс и дух
22. Покой и пробуждение
23. Жизнь и клятва
24. Паразит.


Последний раз редактировалось: FireHowler (2015-05-08 18:59), всего редактировалось 23 раз(а)

Создавать темы 11-Окт-2014 08:53

[Профиль]  [ЛС] 

Азиз87

Стаж: 4 года 11 месяцев

Сообщений: 752

Симпатии: 143

О, спасибо! Будем ждать что сюжет не подведет.

Комментарий от SNIL


А мне кажется, что сомнительно произведение (хотя время покажет)

Создавать темы 11-Окт-2014 21:19

[Профиль]  [ЛС] 

SaniLLa

Стаж: 5 лет 9 месяцев

Сообщений: 5

883707О, спасибо! Будем ждать что сюжет не подведет.
Поверьте не разочаруетесь, прочел мангу в 20 по моему томов на одном дыхании, было довольно интересно.
Но как это часто бывает, есть манга, а есть аниме, если они ничего своего туда не напихают, то думаю будет очень интересная экранизация.

Создавать темы 12-Окт-2014 11:59

[Профиль]  [ЛС] 

Daimos

Стаж: 5 лет 2 месяца

Сообщений: 35

Симпатии: 8

Мангу не читал, первую серию посмотрел, понравилось.
P. S. Сильно смахивает на фильм "Нечто" (The Thing, 1982) и его приквел Нечто 2011 года.

Создавать темы 17-Окт-2014 10:08

[Профиль]  [ЛС] 

FireHowler ®

Стаж: 4 года 5 месяцев

Сообщений: 270

Симпатии: 153

Создавать темы 20-Окт-2014 17:43

[Профиль]  [ЛС] 

Deimos91

Стаж: 5 лет 7 месяцев

Сообщений: 4

Посоны ! кто может скачать все альбомы группы которой в опенинге играет ( даже название скажу Fear, and Loathing in Las Vegas)

Создавать темы 22-Окт-2014 11:25

[Профиль]  [ЛС] 

FireHowler ®

Стаж: 4 года 5 месяцев

Сообщений: 270

Симпатии: 153

Добавлена 2 серия.

Создавать темы 24-Окт-2014 10:22

[Профиль]  [ЛС] 

FoxSage

Стаж: 4 года 3 месяца

Сообщений: 197

Симпатии: 19

ЖЕСТЬ
СПАСИБО

Создавать темы 24-Окт-2014 16:34

[Профиль]  [ЛС] 

FireHowler ®

Стаж: 4 года 5 месяцев

Сообщений: 270

Симпатии: 153

Добавлена 3 серия.
Добавлена 4 серия

Создавать темы 31-Окт-2014 20:52

[Профиль]  [ЛС] 

FireHowler ®

Стаж: 4 года 5 месяцев

Сообщений: 270

Симпатии: 153

Добавлена 5 серия.

Создавать темы 17-Ноя-2014 21:04

[Профиль]  [ЛС] 

FireHowler ®

Стаж: 4 года 5 месяцев

Сообщений: 270

Симпатии: 153

Добавил 6 и 7 серию.

Создавать темы 10-Дек-2014 18:07

[Профиль]  [ЛС] 

FireHowler ®

Стаж: 4 года 5 месяцев

Сообщений: 270

Симпатии: 153

Добавил 8 серию.

Создавать темы 27-Дек-2014 20:36

[Профиль]  [ЛС] 

FireHowler ®

Стаж: 4 года 5 месяцев

Сообщений: 270

Симпатии: 153

9 серия, если кто то также как я еще ждал xD.

Комментарий от SNIL


Ну лично я жду фулл релиза

Создавать темы 01-Фев-2015 21:52

[Профиль]  [ЛС] 

FireHowler ®

Стаж: 4 года 5 месяцев

Сообщений: 270

Симпатии: 153

Snil, я тоже:)

Создавать темы 01-Фев-2015 22:22

[Профиль]  [ЛС] 

FireHowler ®

Стаж: 4 года 5 месяцев

Сообщений: 270

Симпатии: 153

10 серия.

Создавать темы 02-Мар-2015 00:03

[Профиль]  [ЛС] 
Показать сообщения:    
Ответить на тему

Текущее время: 23-Окт 03:58

Часовой пояс: UTC + 5



Вы не можете начинать темы
Вы не можете отвечать на сообщения
Вы не можете редактировать свои сообщения
Вы не можете удалять свои сообщения
Вы не можете голосовать в опросах
Вы не можете прикреплять файлы к сообщениям
Вы не можете скачивать файлы