7 ой гном / Der 7bte Zwerg (Борис Альинович) [2014 г., Мультфильм, Семейный, DVDRip,License]

Ответить на тему
 

Страх ®

Стаж: 4 года 1 месяц

Сообщений: 1131

Симпатии: 448

7 ой гном / Der 7bte Zwerg -Год выпуска: 2014
Страна: Германия
Жанр: Мультфильм, Семейный
Продолжительность: 01:24:00
Перевод: Профессиональный (Лицензия)-Режиссер: Борис Альинович-В ролях: Борис Альинович, Элвин Камерон, Нина Хаген, Норберт Хейстеркамп, Мирко Нончев, Ана Сани, Ральф Шмитц, Мартин Шнайдер, Отто Ваалкес, Густав-Петер Вёлер-Описание:В замке Фантабулараса большой переполох: принцесса Роза празднует свой 18-й день рождения. Приняты самые строгие меры безопасности, ведь злобная Колдунья Делламорта, которая прокляла Розу на ее крестинах, не позволит проклятию раствориться в воздухе. Семеро гномов — Умник, Рыжик, Ворчун, Соня, Силач, Бодряк и Бобо — ничего не знают об этом, когда отправляются на праздник в замок, мечтая повеселиться… Бобо, самый маленький гном, случайно запускает тайный механизм в кольце Колдуньи, и принцесса вместе со всеми гостями замерзает. Гномы спасаются в самую последнюю секунду. Теперь, чтобы все исправить, им придется отправиться в опасное путешествие и найти возлюбленного принцессы, похищенного драконом злобной Делламорты.
-Доп. информация:
 -Качество: DVDRip
Видео: Xvid 720x384 25fps 1871kbps
Аудио: Dolby AC3 48000Hz 6ch 448kbps

Media Info

General
Complete name : D:\Tracker\Movie Files\Der_7bte_Zwerg_2014_D_DVDRip.avi
Format : AVI
Format/Info : Audio Video Interleave
File size : 1.37 GiB
Duration : 1h 23mn
Overall bit rate : 2 330 Kbps
Writing application : VirtualDubMod 1.5.10.2 (build 2540/release)
Writing library : VirtualDubMod build 2540/release
Video
ID : 0
Format : MPEG-4 Visual
Format profile : Advanced [email protected]
Format settings, BVOP : Yes
Format settings, QPel : No
Format settings, GMC : No warppoints
Format settings, Matrix : Default (MPEG)
Codec ID : XVID
Codec ID/Hint : XviD
Duration : 1h 23mn
Bit rate : 1 872 Kbps
Width : 720 pixels
Height : 384 pixels
Display aspect ratio : 1.85:1
Frame rate : 25.000 fps
Color space : YUV
Chroma subsampling : 4:2:0
Bit depth : 8 bits
Scan type : Progressive
Compression mode : Lossy
Bits/(Pixel*Frame) : 0.271
Stream size : 1.10 GiB (80%)
Writing library : XviD 1.2.1 (UTC 2008-12-04)
Audio
ID : 1
Format : AC-3
Format/Info : Audio Coding 3
Mode extension : CM (complete main)
Format settings, Endianness : Big
Codec ID : 2000
Duration : 1h 23mn
Bit rate mode : Constant
Bit rate : 448 Kbps
Channel(s) : 6 channels
Channel positions : Front: L C R, Side: L R, LFE
Sampling rate : 48.0 KHz
Bit depth : 16 bits
Compression mode : Lossy
Stream size : 269 MiB (19%)
Alignment : Split accross interleaves
Interleave, duration : 40 ms (1.00 video frame)
Interleave, preload duration : 500 ms
-

Скриншоты



Последний раз редактировалось: Страх (2014-10-17 23:33), всего редактировалось 1 раз

Создавать темы 12-Окт-2014 14:28

[Профиль]  [ЛС] 

soxib1966

Стаж: 3 года 10 месяцев

Сообщений: 10

Симпатии: 5

хорош спат становис на раздачу

Создавать темы 12-Окт-2014 20:51

[Профиль]  [ЛС] 

Страх ®

Стаж: 4 года 1 месяц

Сообщений: 1131

Симпатии: 448

soxib1966, а ты смотрел в таблицу скачивания? кроме тебя все почему та скачивают)?

Создавать темы 12-Окт-2014 22:06

[Профиль]  [ЛС] 

aziz2725272

Стаж: 5 лет 1 месяц

Сообщений: 158

Симпатии: 6

Продолжительность: 00:01:24 а размер 1.37 GB

Создавать темы 12-Окт-2014 23:37

[Профиль]  [ЛС] 

Страх ®

Стаж: 4 года 1 месяц

Сообщений: 1131

Симпатии: 448

aziz2725272, и ?) может там компрессия такая
ааа) это чтоли) ну а шо) секунды кто будет считать).

Создавать темы 17-Окт-2014 19:11

[Профиль]  [ЛС] 
Показать сообщения:    
Ответить на тему

Текущее время: 21-Ноя 15:09

Часовой пояс: UTC + 5



Вы не можете начинать темы
Вы не можете отвечать на сообщения
Вы не можете редактировать свои сообщения
Вы не можете удалять свои сообщения
Вы не можете голосовать в опросах
Вы не можете прикреплять файлы к сообщениям
Вы не можете скачивать файлы