Возвращение Сингама / Сингам 2 / Singham Returns (Рохит Шетти / Rohit Shetty) [2014, Индия, Боевик, HDRip] VO

Ответить на тему
 

Suxrob89 ®

Стаж: 7 лет 4 месяца

Сообщений: 933

Симпатии: 564

-Возвращение Сингама / Сингам 2- -Страна: Индия
Жанр: Боевик
Год выпуска: 2014
Продолжительность: 02:19:09-Перевод: Одноголосый закадровый - gta24host (Alex)
Субтитры: Нет
Творческая озвучка: gta24host (Alex) (спасибо!)
Перевод на русский язык: Honey&Haseena (спасибо!)
Риппер: soso4eg--Режиссер: Рохит Шетти / Rohit Shetty-В ролях: Карина Капур, Аджай Девган, Анупам Кхер, Ё Ё Хони Сингх, Амол Гуптэ, Закир Хуссэйн, Аджаз Кхан, Шарат Саксена, Помпи Ханс, Дайя Шетти, Сарита Джоши, Винит Шарма, Ашвини Кхалсекар, Говинд Намдео, Самир Дхармадхикари, Дип Радж Рана, Ганеш Ядав, Джитендра Джоши, Удай Тикекар--Описание: Честный и бесстрашный Баджи Рао, по прозвищу Сингам, возвращается теперь уже в качестве заместителя комиссара полиции Мумбаи. Неустрашимый лев снова готов к сражению с новыми напастями, которые встают у него на пути и бросают вызов, чтобы проверить его честность и доблесть.-- --Качество видео: HDRip [исх. BDRip 1080p]
Формат видео: AVI
Видео: 720x304 (2.37:1), 23.976 fps, XviD build 50 ~1361 kbps avg, 0.26 bit/pixel
Аудио: 48 kHz, MPEG Layer 3, 2 ch, ~128.00 kbps-

Скриншот с названием

Скриншоты

Скриншоты

MI

General
Complete name : C:\INDIYA\Vozvrashenie.Singama.2014.HDRip.XviD-soso4eg.avi
Format : AVI
Format/Info : Audio Video Interleave
File size : 1.46 GiB
Duration : 2h 19mn
Overall bit rate : 1 499 Kbps
Movie name : Singham.Returns.2014.HDRip.XviD-soso4eg
Director : soso4eg
Writing application : VirtualDubMod 1.6.0.0 SURROUND (build 2560/release)
Original source form/Name : Hindi
Copyright : специально для BitTorrent трекер RuTracker.org (ex torrents.ru)
Comment : пер. LVO (Alex) по субтитрам Honey&Haseena
Video
ID : 0
Format : MPEG-4 Visual
Format profile : Advanced [email protected]
Format settings, BVOP : 1
Format settings, QPel : No
Format settings, GMC : No warppoints
Format settings, Matrix : Default (H.263)
Codec ID : XVID
Codec ID/Hint : XviD
Duration : 2h 19mn
Bit rate : 1 362 Kbps
Width : 720 pixels
Height : 304 pixels
Display aspect ratio : 2.35:1
Frame rate : 23.976 fps
Color space : YUV
Chroma subsampling : 4:2:0
Bit depth : 8 bits
Scan type : Progressive
Compression mode : Lossy
Bits/(Pixel*Frame) : 0.259
Stream size : 1.32 GiB (91%)
Writing library : XviD 1.2.1 (UTC 2008-12-04)
Audio
ID : 1
Format : MPEG Audio
Format version : Version 1
Format profile : Layer 3
Codec ID : 55
Codec ID/Hint : MP3
Duration : 2h 19mn
Bit rate mode : Constant
Bit rate : 128 Kbps
Channel count : 2 channels
Sampling rate : 48.0 KHz
Compression mode : Lossy
Delay relative to video : 672ms
Stream size : 127 MiB (9%)
Alignment : Split accross interleaves
Interleave, duration : 42 ms (1.00 video frame)
Interleave, preload duration : 504 ms
Writing library : LAME3.98r
Encoding settings : -m s -V 4 -q 2 -lowpass 17 -b 128

Создавать темы 14-Окт-2014 06:59

[Профиль]  [ЛС] 

bumblebee

Стаж: 7 лет 4 месяца

Сообщений: 97

Симпатии: 1

первая часть есть?

Создавать темы 06-Фев-2015 23:38

[Профиль]  [ЛС] 
Показать сообщения:    
Ответить на тему

Текущее время: 16-Дек 14:22

Часовой пояс: UTC + 5



Вы не можете начинать темы
Вы не можете отвечать на сообщения
Вы не можете редактировать свои сообщения
Вы не можете удалять свои сообщения
Вы не можете голосовать в опросах
Вы не можете прикреплять файлы к сообщениям
Вы не можете скачивать файлы