Бункер / Der Untergang / Downfall (Оливер Хиршбигель) [2004 г., Драма / Военный / Биография / История] BDRip

Ответить на тему
 

БЕГИ 1996 ®

Стаж: 4 года 1 месяц

Сообщений: 17

Симпатии: 15

Бункер / Der Untergang / Downfall Год выпуска: 2004
Страна: Германия, Италия, Австрия, Osterreichischer Rundfunk (ORF), Constantin Film Produktion GmbH, Degeto Film, EOS Entertainment, Norddeutscher Rundfunk (NDR), Rai Cinemafiction, Westdeutscher Rundfunk (WDR)
Жанр: Драма / Военный / Биография / История
Продолжительность: 02:35:11
Перевод: Профессиональный (многоголосый)
Режиссер: Оливер Хиршбигель
Сценарий: Бернд Айхингер, Иоахим Фест, Траудль Юнге
Продюсер: Вольф-Дитрих Брюкер, Бернд Айхингер, Дорис Й. Хайнце
-
Премьера в мире: 08 сентября 2004
-
Бюджет: €13 500 000
Сборы в США: $5 509 040
Сборы в мире: + $86 671 870 = $92 180 910
Сборы в России: $15 000
-
В ролях: Бруно Ганц, Александра Мария Лара, Коринна Харфух, Ульрих Маттес, Юлиане Келер, Хайно Ферх, Кристиан Беркель, Маттиас Хабих, Томас Кречманн, Михаэль Мендль, Андре Хеннике, Ульрих Нойтен, Биргит Минихмайр, Рольф Канис, Юстус фон Донаньи, Дитер Манн, Кристиан Редль, Гетц Отто, Томас Лимпинзель, Томас Тиме, Геральд Александр Хельд, Доневан Гуния, Беттина Редлих, Генрих Шмайдер, Анна Тальбах, Дитрих Холлиндербаумер, Ульрике Крумбигель, Карл Кранцковски, Торстен Крон, Юрген Тонке
-
Описание: Апрель 1945 года. Советские войска сжимают кольцо вокруг столицы Третьего рейха — Берлина. Перед лицом неминуемого поражения нацистская верхушка ищет спасение в секретном бункере, не желая покидать обезумевшего фюрера. Отвергнув предложения о побеге, Гитлер утверждает, что победа близка. Он приказывает сравнять Германию с землей и обсуждает детали своего самоубийства. Последнее убежище палачей пронизано агонией и страхом. И лишь те, кто выйдут живыми из этого бетонного ада, смогут поведать историю о последних минутах жизни и мрачном падении диктатора и его режима.
-
Качество: BDRip
Формат: MKV (Matroska video)
Видео кодек: V_MPEG4/ISO/AVC
Аудио кодек: AC3 (Audio Coding 3)
Видео: MPEG4 Video (H264) 1024x576 23.976 fps 2 499 kbps
Аудио #1: Dolby AC3 48000 Hz 5.1, 6ch Stereo 448 kbps (Русский)
Аудио #2: Dolby AC3 48000 Hz 5.1, 6ch Stereo 448 kbps (Французский)
Субтитр #1: UTF-8 [S: Russian [rus] (subrip) [default]] (Русский)
Субтитр #2: UTF-8 [S: English [eng] (subrip)] (Английский)

Медиа инфо

Видео
Идентификатор : 1
Формат : AVC
Формат/Информация : Advanced Video Codec
Профиль формата : [email protected]
Параметр CABAC формата : Да
Параметр ReFrames формата : 10 кадров
Идентификатор кодека : V_MPEG4/ISO/AVC
Продолжительность : 2 ч. 35 м.
Битрейт : 2499 Кбит/сек
Ширина : 1024 пикселя
Высота : 576 пикселей
Соотношение сторон : 16:9
Режим частоты кадров : Постоянный
Частота кадров : 23,976 кадра/сек
Цветовое пространство : YUV
Субдискретизация насыщенности : 4:2:0
Битовая глубина : 8 бит
Тип развёртки : Прогрессивная
Бит/(Пиксели*Кадры) : 0.177
Размер потока : 2,63 Гбайт (72%)
Библиотека кодирования : x264 core 129 r2245 bc13772
Настройки программы : cabac=1 / ref=10 / deblock=1:-3:-3 / analyse=0x3:0x133 / me=umh / subme=11 / psy=1 / psy_rd=1.00:0.00 / mixed_ref=1 / me_range=48 / chroma_me=1 / trellis=2 / 8x8dct=1 / cqm=0 / deadzone=21,11 / fast_pskip=0 / chroma_qp_offset=-2 / threads=3 / lookahead_threads=1 / sliced_threads=0 / nr=0 / decimate=0 / interlaced=0 / bluray_compat=0 / constrained_intra=0 / bframes=8 / b_pyramid=2 / b_adapt=2 / b_bias=0 / direct=3 / weightb=1 / open_gop=0 / weightp=2 / keyint=240 / keyint_min=23 / scenecut=40 / intra_refresh=0 / rc_lookahead=40 / rc=2pass / mbtree=1 / bitrate=2499 / ratetol=1.0 / qcomp=0.60 / qpmin=10 / qpmax=51 / qpstep=4 / cplxblur=20.0 / qblur=0.5 / ip_ratio=1.40 / aq=2:1.00
Язык : English
Default : Нет
Forced : Нет
Аудио #1
Идентификатор : 2
Формат : AC-3
Формат/Информация : Audio Coding 3
Расширение режима : CM (complete main)
Параметр Endianness формата : Big
Идентификатор кодека : A_AC3
Продолжительность : 2 ч. 35 м.
Вид битрейта : Постоянный
Битрейт : 448 Кбит/сек
Каналы : 6 каналов
Расположение каналов : Front: L C R, Side: L R, LFE
Частота : 48,0 КГц
Битовая глубина : 16 бит
Метод сжатия : С потерями
Размер потока : 497 Мбайт (13%)
Язык : Russian
Default : Да
Forced : Нет
Аудио #2
Идентификатор : 3
Формат : AC-3
Формат/Информация : Audio Coding 3
Расширение режима : CM (complete main)
Параметр Endianness формата : Big
Идентификатор кодека : A_AC3
Продолжительность : 2 ч. 35 м.
Вид битрейта : Постоянный
Битрейт : 448 Кбит/сек
Каналы : 6 каналов
Расположение каналов : Front: L C R, Side: L R, LFE
Частота : 48,0 КГц
Битовая глубина : 16 бит
Метод сжатия : С потерями
Размер потока : 497 Мбайт (13%)
Заголовок : Немецкий
Default : Нет
Forced : Нет
Текст #1
Идентификатор : 4
Формат : UTF-8
Идентификатор кодека : S_TEXT/UTF8
Идентификатор кодека/Информация : UTF-8 Plain Text
Язык : Russian
Default : Да
Forced : Нет
Текст #2
Идентификатор : 5
Формат : UTF-8
Идентификатор кодека : S_TEXT/UTF8
Идентификатор кодека/Информация : UTF-8 Plain Text
Язык : English
Default : Нет
Forced : Нет

Скриншоты













Последний раз редактировалось: БЕГИ 1996 (2014-10-17 23:25), всего редактировалось 1 раз

Создавать темы 15-Окт-2014 11:47

[Профиль]  [ЛС] 

rokko

Стаж: 6 лет 3 месяца

Сообщений: 31

Симпатии: 1

ну очень долго проверяют.

Создавать темы 16-Окт-2014 14:31

[Профиль]  [ЛС] 

alecs-wert

Стаж: 5 лет 6 месяцев

Сообщений: 13

Ну и что здесь происходит?.Модераторы что так долго?Или какая-то личная неприязнь здесь

Создавать темы 20-Окт-2014 09:53

[Профиль]  [ЛС] 

Mixer City

Стаж: 6 лет 7 месяцев

Сообщений: 754

Симпатии: 63

БЕГИ 1996, поставьте в шапке номер по рейтингу, как в остальных раздачах...

Создавать темы 20-Окт-2014 22:08

[Профиль]  [ЛС] 

БЕГИ 1996 ®

Стаж: 4 года 1 месяц

Сообщений: 17

Симпатии: 15

Mixer City, Немогу отредактировать, кнопка правка не разрешает. А так фильм #117

Создавать темы 20-Окт-2014 23:45

[Профиль]  [ЛС] 
Показать сообщения:    
Ответить на тему

Текущее время: 20-Авг 22:28

Часовой пояс: UTC + 5



Вы не можете начинать темы
Вы не можете отвечать на сообщения
Вы не можете редактировать свои сообщения
Вы не можете удалять свои сообщения
Вы не можете голосовать в опросах
Вы не можете прикреплять файлы к сообщениям
Вы не можете скачивать файлы