Не мой день / Nicht mein Tag (Петер Торварт) [2014 г., Боевик, Комедия, Криминал, Приключения, HDRip]

Ответить на тему
 

Rock321123 ®

Стаж: 7 лет 1 месяц

Сообщений: 94

Симпатии: 5

Не мой день / Nicht mein Tag
Год выпуска: 2014
Страна: Германия
Жанр: Боевик, Комедия, Криминал, Приключения
Продолжительность: 01:50:16
Перевод: Профессиональный (полное дублирование)
Режиссер: Петер Торварт
Сценаристы: Петер Торварт, Стефан Холц, Ральф Хасманн
Продюсеры:Тиль Швайгер, Кристиан Бекер, Маркус Мачура
В ролях: Мориц Бляйбтрой, Жасмин Герат, Аксель Штайн, Анна Мария Мюэ, Неля Кипер, Бен Рюдингер, Касэм Ходжа, Беким Гури, Тобиас Нид, Максвелл Рихтер
Описание: Тилль Райнер — банковский клерк, чья жизнь довольно обычна, если не сказать скучна. Брак, работа, жизнь в небольшом городке. Огонь страсти в отношениях с женой Мириам давно утих, поглощенный повседневной рутиной. Разве это именно то, о чем он так мечтал? Герой фильма сокрушается и не знает, как изменить свою жизнь. Как вдруг, она меняется сама. В один прекрасный день Тилль становится заложником. Вооруженный грабитель банка Наппо, далеко не профессионал своего дела, берет его на прицел.
Качество: HDRip
Формат: AVI
Видео кодек: Другой MPEG4
Аудио кодек: AC3
Видео: MPEG-4 Visual, 1509 Kbps
Аудио: AC-3, 384 Kbps, 6 channels, 48.0 KHz

Mediainfo

General
Complete name : D:\Downloads\Видео\Nicht.Mein.Tag.2014.HDRip.ViruseProject.avi
Format : AVI
Format/Info : Audio Video Interleave
File size : 1.47 GiB
Duration : 1h 50mn
Overall bit rate : 1 902 Kbps
Writing application : VirtualDubMod 1.5.10.2 (build 2540/release)
Writing library : VirtualDubMod build 2540/release
Video
ID : 0
Format : MPEG-4 Visual
Format profile : Advanced [email protected]
Format settings, BVOP : 1
Format settings, QPel : No
Format settings, GMC : No warppoints
Format settings, Matrix : Default (MPEG)
Codec ID : XVID
Codec ID/Hint : XviD
Duration : 1h 50mn
Bit rate : 1 509 Kbps
Width : 720 pixels
Height : 304 pixels
Display aspect ratio : 2.35:1
Frame rate : 25.000 fps
Color space : YUV
Chroma subsampling : 4:2:0
Bit depth : 8 bits
Scan type : Progressive
Compression mode : Lossy
Bits/(Pixel*Frame) : 0.276
Stream size : 1.16 GiB (79%)
Writing library : XviD 1.2.1 (UTC 2008-12-04)
Audio
ID : 1
Format : AC-3
Format/Info : Audio Coding 3
Mode extension : CM (complete main)
Format settings, Endianness : Big
Codec ID : 2000
Duration : 1h 50mn
Bit rate mode : Constant
Bit rate : 384 Kbps
Channel(s) : 6 channels
Channel positions : Front: L C R, Side: L R, LFE
Sampling rate : 48.0 KHz
Bit depth : 16 bits
Compression mode : Lossy
Stream size : 303 MiB (20%)
Alignment : Split accross interleaves
Interleave, duration : 40 ms (1.00 video frame)
Interleave, preload duration : 500 ms

Скриншоты




Создавать темы 17-Окт-2014 10:58

[Профиль]  [ЛС] 

allan

Стаж: 6 лет 1 месяц

Сообщений: 30

Симпатии: 2

фильмец ниче так

Создавать темы 17-Окт-2014 21:09

[Профиль]  [ЛС] 

flint

Стаж: 5 лет 2 месяца

Сообщений: 18

Фильм нормальный

Создавать темы 18-Окт-2014 17:44

[Профиль]  [ЛС] 

vanfank

Стаж: 4 года 6 месяцев

Сообщений: 141

Симпатии: 5

3 скрин надеюсь не что я подумал? любители синих мониторов?

Создавать темы 27-Окт-2014 20:46

[Профиль]  [ЛС] 

ЛехаМикроКачок

Стаж: 5 лет 5 месяцев

Сообщений: 30

Симпатии: 1

нет это любители голубых экранов))

Создавать темы 28-Окт-2014 13:59

[Профиль]  [ЛС] 
Показать сообщения:    
Ответить на тему

Текущее время: 20-Ноя 20:38

Часовой пояс: UTC + 5



Вы не можете начинать темы
Вы не можете отвечать на сообщения
Вы не можете редактировать свои сообщения
Вы не можете удалять свои сообщения
Вы не можете голосовать в опросах
Вы не можете прикреплять файлы к сообщениям
Вы не можете скачивать файлы