Любовь от всех болезней / Supercondriaque (Дэни Бун) [2014 г., Комедия, HDRip]

Ответить на тему
 

Rock321123 ®

Стаж: 6 лет 10 месяцев

Сообщений: 94

Симпатии: 5

Любовь от всех болезней / Supercondriaque
Год выпуска: 2014
Страна: Франция
Жанр: Комедия
Продолжительность: 01:47:29
Перевод: Профессиональный (полное дублирование)
Режиссер: Дэни Бун
Сценаристы: Дэни Бун
Продюсеры: Жером Сейду, Эрик Юбер, Ромейн Ле Гранд
В ролях: Дэни Бун, Кад Мерад, Жан-Ив Бертело, Джонатан Коэн, Алис Поль, Жером Коммандёр, Валери Боннетон, Бруно Лоше, Жюдит Эль Зейн, Марта Виллалонга
Описание: Роман Фобер — чудак и ипохондрик. Он никогда не был женат. Вся его жизнь сводится к тому, чтобы выискивать у себя симптомы страшных, на деле не существующих, болезней. Каждой находкой он стремится поделиться со своим единственным другом — доктором Димитрием Звенкой. Димитрий решает помочь Роману найти женщину и таким образом излечить его от постоянной ипохондрии, которая становится невыносимой.
Качество: HDRip
Формат: AVI
Видео кодек: Другой MPEG4
Аудио кодек: AC3
Видео: MPEG-4 Visual, 1946 Kbps
Аудио: AC-3, 384 Kbps, 6 channels, 48.0 KHz
Аудио #2: AC-3, 384 Kbps, 6 channels, 48.0 KHz

Mediainfo

General
Complete name : D:\Downloads\Видео\Lyubov.ot.vseh.bolezney.2014.D.HDRip.2100MB.[dchub.ws].avi
Format : AVI
Format/Info : Audio Video Interleave
Format profile : OpenDML
File size : 2.05 GiB
Duration : 1h 47mn
Overall bit rate : 2 732 Kbps
Writing application : VirtualDubMod 1.5.10.2 (build 2540/release)
Writing library : VirtualDubMod build 2540/release
Video
ID : 0
Format : MPEG-4 Visual
Format profile : Advanced [email protected]
Format settings, BVOP : 2
Format settings, QPel : No
Format settings, GMC : No warppoints
Format settings, Matrix : Default (MPEG)
Codec ID : XVID
Codec ID/Hint : XviD
Duration : 1h 47mn
Bit rate : 1 946 Kbps
Width : 720 pixels
Height : 304 pixels
Display aspect ratio : 2.35:1
Frame rate : 24.000 fps
Color space : YUV
Chroma subsampling : 4:2:0
Bit depth : 8 bits
Scan type : Progressive
Compression mode : Lossy
Bits/(Pixel*Frame) : 0.370
Stream size : 1.46 GiB (71%)
Writing library : XviD 1.2.1 (UTC 2008-12-04)
Audio #1
ID : 1
Format : AC-3
Format/Info : Audio Coding 3
Mode extension : CM (complete main)
Format settings, Endianness : Big
Codec ID : 2000
Duration : 1h 47mn
Bit rate mode : Constant
Bit rate : 384 Kbps
Channel(s) : 6 channels
Channel positions : Front: L C R, Side: L R, LFE
Sampling rate : 48.0 KHz
Bit depth : 16 bits
Compression mode : Lossy
Stream size : 295 MiB (14%)
Alignment : Split accross interleaves
Interleave, duration : 42 ms (1.00 video frame)
Interleave, preload duration : 500 ms
Audio #2
ID : 2
Format : AC-3
Format/Info : Audio Coding 3
Mode extension : CM (complete main)
Format settings, Endianness : Big
Codec ID : 2000
Duration : 1h 47mn
Bit rate mode : Constant
Bit rate : 384 Kbps
Channel(s) : 6 channels
Channel positions : Front: L C R, Side: L R, LFE
Sampling rate : 48.0 KHz
Bit depth : 16 bits
Compression mode : Lossy
Stream size : 295 MiB (14%)
Alignment : Split accross interleaves
Interleave, duration : 42 ms (1.00 video frame)
Interleave, preload duration : 500 ms

Скриншоты





Последний раз редактировалось: Rock321123 (2014-10-18 09:38), всего редактировалось 2 раз(а)

Создавать темы 17-Окт-2014 11:18

[Профиль]  [ЛС] 

Старый Дядька

Стаж: 4 года 11 месяцев

Сообщений: 566

Симпатии: 400

Дорогой Rock321123.
Когда тырите релизы с соседских трекеров,
убирайте название этих трекеров, с имени файла.
Такие релизы, на любом трекере, обычно закрывают.
Lyubov.ot.vseh.bolezney.2014.D.HDRip.2100MB.[dchub.ws].avi

Создавать темы 17-Окт-2014 22:39

[Профиль]  [ЛС] 

Rock321123 ®

Стаж: 6 лет 10 месяцев

Сообщений: 94

Симпатии: 5

я не копировал с трекера!

Создавать темы 18-Окт-2014 09:30

[Профиль]  [ЛС] 

flint

Стаж: 4 года 11 месяцев

Сообщений: 18

Дэни Бун в своём стиле не шедевр но фильм стоит посмотреть.

Создавать темы 18-Окт-2014 17:47

[Профиль]  [ЛС] 

Slapper

Стаж: 3 года 9 месяцев

Сообщений: 2193

Симпатии: 213

Rock321123, + Добавьте, что это Лицензия

Создавать темы 18-Окт-2014 20:15

[Профиль]  [ЛС] 

Rock321123 ®

Стаж: 6 лет 10 месяцев

Сообщений: 94

Симпатии: 5

Редактирование проверенных релизов - запрещено!

Создавать темы 19-Окт-2014 09:27

[Профиль]  [ЛС] 
Показать сообщения:    
Ответить на тему

Текущее время: 21-Авг 19:09

Часовой пояс: UTC + 5



Вы не можете начинать темы
Вы не можете отвечать на сообщения
Вы не можете редактировать свои сообщения
Вы не можете удалять свои сообщения
Вы не можете голосовать в опросах
Вы не можете прикреплять файлы к сообщениям
Вы не можете скачивать файлы