Золотая коллекция Советского кинематографа (Леонид Гайдай, Александр Серый) [1998 г., Мелодрама, Комедия, Приключения, Семейный]

Ответить на тему
 

2331075 ®

Стаж: 5 лет 6 месяцев

Сообщений: 7

Симпатии: 5

Золотая коллекция Советского кинематографа-- --Название :Золотая коллекция Советского кинематографа
Год выпуска: 1965-1973
Страна : СССР
Жанр: Мелодрама, Комедия, Приключения, Семейный
Продолжительность: 01:31:38+01:34:33+01:19:53+01:38:20+01:26:43
--Режиссер: Леонид Гайдай, Александр Серый--
В ролях: Александр Демьяненко, Наталья Селезнёва, Алексей Смирнов, Юрий Никулин, Евгений Моргунов, Георгий Вицин, Михаил Пуговкин, Виктор Павлов, Владимир Басов, Рина Зеленая, Наталья Варлей, Руслан Ахметов, Владимир Этуш, Фрунзик Мкртчян, Нина Гребешкова, Михаил Глузский, Георгий Милляр, Эммануил Геллер, Петр Репнин, Ной Авалиани, Донара Мкртчян, Александр Строев, Вахтанг Кикабидзе, Михаил Содорский, Богдан Галустян, Георгий Светлани, Олег Севостьянов, Леонид Довлатов, Георгий Ахундов, Эдуард Абалов, Владислав Лынковский, Шота Харабадзе, Андрей Миронов, Анатолий Папанов, Станислав Чекан, Владимир Гуляев, Нонна Мордюкова, Светлана Светличная, Роман Филиппов, Григорий Шпигель, Леонид Каневский, Игорь Ясулович, Евгений Леонов, Раднэр Муратов, Савелий Крамаров, Наталья Фатеева, Эраст Гарин, Николай Олялин, Анатолий Папанов, Павел Шпрингфельд, Любовь Соколова, Юрий Яковлев, Леонид Куравлёв, Наталья Крачковская, Савелий Крамаров, Наталья Селезнёва, Михаил Пуговкин, Сергей Филиппов, Наталья Кустинская--

Леонид Гайдай (Биография)

Леонид Гайдай родился в 1923 году в городе Свободный. Его отец, Иов Исидорович Гайдай (1886—1965), был железнодорожным служащим, уроженцем села Ореховщина на Полтавщине. Мать, Мария Ивановна, была родом из Рязанской области. У Леонида Гайдая были брат Александр и сестра Августа. Брат, Александр Иович Гайдай, был журналистом и поэтом. В том же 1923 году семья перебралась в Читу, а затем — в Приангарье, в Иркутск, где проживала в привокзальном районе Глазково. Гайдай учился в Иркутской железнодорожной школе № 42.
Леонид Гайдай принимал участие в Великой Отечественной войне, в 1942 году первоначально проходил службу в Монголии, затем был направлен на Калининский фронт. 14 декабря 1942 года в боях за деревню Енкино забросал гранатами огневую точку противника и уничтожил трёх немцев, участвовал в захвате пленных, за что награждён медалью «За боевые заслуги» (приказ № 69 от 20.12.1942 по 1263 стрелковому полку 381-й стрелковой дивизии). Получил тяжёлое ранение, подорвавшись на противопехотной мине, после которого его признали непригодным к дальнейшему несению военной службы. В 1947 году окончил театральную студию при Иркутском областном драматическом театре (ныне — Иркутский академический драматический театр имени Н. П. Охлопкова), работал осветителем, актёром.
В 1949 году поступил на режиссёрский факультет ВГИК, который закончил в 1955 году.
В 1956 году вышел первый фильм Леонида Гайдая — «Долгий путь», поставленный по мотивам рассказов В. Г. Короленко. Спустя два года на экраны выходит сатирическая картина «Жених с того света», едва не стоившая режиссёру карьеры. После редактирования и удаления всех неугодных начальству сцен от фильма осталось чуть больше половины. Несмотря на благосклонность к нему директора «Мосфильма» И. А. Пырьева, Гайдай был практически отставлен от режиссёрской работы. Лишь после выпуска в 1960 году идеологически «правильного» фильма «Трижды воскресший» (о котором Гайдай сам позже никогда не упоминал) его «простили». Дальше были короткометражные фильмы 1961 года — «Пёс Барбос и необычный кросс» и «Самогонщики». Эти работы приносят известность режиссёру, а также легендарной тройке Трус — Балбес — Бывалый. На следующий год Гайдай экранизирует три новеллы О. Генри, в рамках своего фильма «Деловые люди». Сделав перерыв в три года, режиссёр выпускает подряд три фильма, которые становятся всенародно любимыми, истинными жемчужинами советского кинематографа. Кинокомедия «Операция «Ы» и другие приключения Шурика», состоящая из трёх киноновелл, занимает первое место в прокате 1965 года, также как и следующие два фильма Гайдая — «Кавказская пленница, или Новые приключения Шурика» (1966 года) и «Бриллиантовая рука» (1968 года).
Эксцентрическая комедия Леонида Гайдая — «Бриллиантовая рука» в 1995 году была признана лучшей отечественной комедией за 100 лет, победив в опросе телезрителей[источник не указан 36 дней]; за которую он был награжден Призом РТР «Золотой билет» посмертно. «12 стульев» — экранизация одноимённого романа И. Ильфа и Е. Петрова в двух частях, снятая Гайдаем в 1971 году; премьера в кинотеатрах — 21 июня 1971 года. Роль Остапа Бендера в фильме исполнил Арчил Гомиашвили.
В 1970-х годах режиссёр экранизировал классические произведения отечественных авторов: (И. Ильф и Е. Петров, М. Булгаков, М. Зощенко, Н. Гоголь). В 1981—1988 годах Гайдай снимал сюжеты для киножурнала «Фитиль». Тогда же на экраны вышло несколько новых картин Гайдая. Для зрителей они были менее заметны, нежели раннее творчество режиссёра.
Согласно опросу журнала «Советский экран» в 1989 году, в категории «Лучший режиссёр-комедиограф» Гайдай получил лишь третье место (120 голосов), его опередили Юрий Мамин (140 голосов) и Эльдар Рязанов (570) голосов.
Последней работой Леонида Гайдая стал фильм «На Дерибасовской хорошая погода, или На Брайтон-Бич опять идут дожди», выпущенный в 1992 году.
Леонид Гайдай был женат на актрисе Нине Гребешковой. Дочь Оксана и внучка Ольга.
Скончался 19 ноября 1993 года в Москве в результате тромбоэмболии лёгочной артерии. Похоронен на Кунцевском кладбище в Москве.
Награды и премии
МКФ короткометражных фильмов в Кракове (1965, Главный приз «Серебряный дракон Вавеля», фильм «Операция „Ы“ и другие приключения Шурика»)
ВКФ (1972, Диплом и Премия «За вклад в разработку жанра кинокомедии», фильм «12 стульев»)
Фестиваль советских фильмов в Сорренто (1972, Спец. приз «Серебряная сирена», фильм «12 стульев»)
МКФ в Москве (1981, Спец. упоминание жюри, фильм «За спичками»)
Премия «Золотой Овен» (1993, «Человек кинематографического года»)
Приз РТР «Золотой билет» (1995, «За лучшую отечественную комедию» (посмертно), фильм «Бриллиантовая рука»)[5]
Народный артист СССР (1989)
Народный артист РСФСР (1974)
Государственная премия РСФСР имени братьев Васильевых (1970) — за комедии последних лет
Орден Отечественной войны I степени (1985)
Медали

Александр Серый (Биография)

Родился 27 октября 1927 года в Рамони (ныне Воронежская область).
Переехав в Москву, в 1944—1947 годах, учился в МЭИ, затем — в МАИ. После окончания МАИ в 1951 году Александр Серый работал инженером на заводе, начальником лаборатории в МАИ, старшим инженером Московского радиоцентра. В 1958 году он окончил Высшие режиссёрские курсы при киностудии «Мосфильм», где учился вместе с Г. Н. Данелия. С 1958 года — ассистент режиссёра, затем режиссёр киностудии «Мосфильм».
В том же году, за драку с неким архитектором, к которому он приревновал свою девушку, Александр Серый был осуждён на 8 лет. На свободу вышел раньше срока и снял в соавторстве два фильма.
«Из-за своего несдержанного, ревнивого нрава Саша оказался в тюрьме. Ему дали 8 лет, но вышел он досрочно, через четыре года, не имея ни денег, ни работы. Мы с ним дружили, вместе учились ещё на Высших режиссёрских курсах, поэтому я ему предложил: пишу сценарий и становлюсь художественным руководителем картины, а снимает он. На том и порешили». (Георгий Данелия).
После освобождения он сумел получить возможность для работы, дебютировав как постановщик в 1963 году фильмом «Выстрел в тумане». Однако снимал он не один, а совместно с А. А. Бобровским. Также совместной работой, на этот раз с К. И. Жуком, стала лента «Иностранка» (1965). Самостоятельно поставить фильм ему дали только несколько лет спустя.
В соавторстве с писательницей В. С. Токаревой и Данелией обработал сценарий В. И. Ежова (известного по сценарию «Белого солнца пустыни») для фильма «Джентльмены удачи». Знаменитые жаргонные фразы добавил в фильм сам Александр Серый — пригодился тюремный опыт. И концепция, и главные действующие лица, и актёрский состав неоднократно менялись. Сюжет о том, как лейтенант милиции добрым словом перевоспитывает группу уголовников, превратился в историю «Джентльменов удачи». Из-за обилия тюремной лексики Госкино долго не выпускало фильм на экраны. «Джентльменов удачи» посмотрел глава МВД Н. А. Щёлоков и хохотал до слёз, как вспоминают очевидцы. Но, как однажды Е. П. Леонову сказал другой чиновник, запретивший фильм «Тридцать три», «одно дело, когда смотришь фильм как человек, и совсем иное — как генерал!» И вполне возможно, что киноплёнка осталась бы лежать на полках архива до конца восьмидесятых, если бы фильм не показали генеральному секретарю ЦК КПСС Л. И. Брежневу.
По настоянию Георгия Данелии, который по придуманному Серым сюжету написал сценарий, «неблагонадёжного» режиссёра утвердили постановщиком фильма «Джентльмены удачи». Фильм, в котором снимались Евгений Леонов, Георгий Вицин, Савелий Крамаров и многие другие известные актёры, вышел на экраны страны в 1971 году, причём разрешение на прокат картины дал лично Брежнев после просмотра у себя на даче; генсек оценил меткий юмор и заметил, что весь этот жаргон знает каждый мальчишка. Фильм вышел на экраны и имел невероятный успех. В последующие годы режиссёр поставил ещё две комедийные ленты — «Ты — мне, я — тебе» (1976) и «Берегите мужчин!» (1982), однако они оказались менее удачными, чем «Джентльмены удачи».
Александр Серый намеревался снять продолжение этого фильма, но не сумел реализовать свои творческие планы: ещё во время съемок «Джентльменов» у него обнаружили тяжелую болезнь — лейкемию. Болезнь прогрессировала, ему становилось всё хуже, и 16 октября 1987 года, за несколько дней до своего 60-летия, он застрелился[1]. Александр Серый похоронен в Подмосковье в районе реки Клязьма на Мамонтовском кладбище.

Семья

Женился на Акоповой Марине Сергеевне 3 декабря 1960 года.
12 декабря 1961 года родилась — дочь Ольга.
15 августа 1983 года — внучка Варвара.
12 марта 1998 года — внучка Вера.

Фильмография

1963 — Выстрел в тумане
1965 — Иностранка
1971 — Джентльмены удачи
1976 — Ты — мне, я — тебе
1982 — Берегите мужчин!

Иван Васильевич меняет профессию (1973) BDRip

-- Иван Васильевич меняет профессию--Название: Иван Васильевич меняет профессию
Год выхода: 1973
Студия : Мосфильм
Страна : CCCР
Жанр: фантастика, комедия, приключения, семейный
Продолжительность: 01:31:38--

Режиссер:Леонид Гайдай--В ролях: Александр Демьяненко, Юрий Яковлев, Леонид Куравлёв, Наталья Крачковская, Савелий Крамаров, Наталья Селезнёва, Владимир Этуш, Михаил Пуговкин, Сергей Филиппов, Наталья Кустинская
--О фильме:Инженер-изобретатель Тимофеев сконструировал машину времени, которая соединила его квартиру с далеким шестнадцатым веком - точнее, с палатами государя Ивана Грозного. Туда-то и попадают тезка царя пенсионер-общественник Иван Васильевич Бунша и квартирный вор Жорж Милославский.
На их место в двадцатом веке «переселяется» великий государь. Поломка машины приводит ко множеству неожиданных и забавных событий...
-- --

MediaInfo

General
Complete name : Ivan.Vasilevich.menyaet.professiyu.1973.RUS.BDRip.XviD.AC3.-HQCLUB.avi
Format : AVI
Format/Info : Audio Video Interleave
File size : 1.45 GiB
Duration : 1h 31mn
Overall bit rate : 2 261 Kbps
Movie name : Ivan.Vasilevich.menyaet.professiyu.1973.RUS.BDRip.XviD.AC3.-HQCLUB
Director : kingsize87 (Blu-ray Disc)
Writing application : VirtualDubMod 1.5.10.2 (build 2542/release)
Copyright : HQCLUB (http://hqclub.net)
Comment : 16.03.2011
Video
ID : 0
Format : MPEG-4 Visual
Format profile : Advanced [email protected]
Format settings, BVOP : Yes
Format settings, QPel : No
Format settings, GMC : No warppoints
Format settings, Matrix : Custom
Codec ID : XVID
Codec ID/Hint : XviD
Duration : 1h 31mn
Bit rate : 1 867 Kbps
Width : 704 pixels
Height : 512 pixels
Display aspect ratio : 1.375
Frame rate : 23.976 fps
Color space : YUV
Chroma subsampling : 4:2:0
Bit depth : 8 bits
Scan type : Progressive
Bits/(Pixel*Frame) : 0.216
Stream size : 1.20 GiB (83%)
Writing library : XviD 62
Audio
ID : 1
Format : AC-3
Format/Info : Audio Coding 3
Mode extension : CM (complete main)
Codec ID : 2000
Duration : 1h 31mn
Bit rate mode : Constant
Bit rate : 384 Kbps
Channel(s) : 6 channels
Channel positions : Front: L C R, Side: L R, LFE
Sampling rate : 48.0 KHz
Bit depth : 16 bits
Stream size : 252 MiB (17%)
Alignment : Split accross interleaves
Interleave, duration : 42 ms (1.00 video frame)
Interleave, preload duration : 500 ms
--Тех.Данные :
Качество: BDRip (источник: / Blu-ray Disc / 1080p)
Формат : AVI
Видео: 704x512 (1.37:1), 23,976 fps, XviD build 62 ~1867 kbps avg, 0.22 bit/pixel
Аудио: 48 kHz, AC3 Dolby Digital, 3/2 (L,C,R,l,r) + L[img][/img]FE ch, ~384.00 kbps avg-- --

Операция «Ы» и другие приключения Шурика (1965) BDRip

--Операция «Ы» и другие приключения Шурика--
Название: Операция «Ы» и другие приключения Шурика
Страна: СССР
Студия : Мосфильм
Год выхода: 1965
Жанр: мелодрама, комедия, криминал
Продолжительность: 01:34:33
--Режиссер: Леонид Гайдай--В ролях: Александр Демьяненко, Наталья Селезнёва, Алексей Смирнов, Юрий Никулин, Евгений Моргунов, Георгий Вицин, Михаил Пуговкин, Виктор Павлов, Владимир Басов, Рина Зеленая
--О фильме: Фильм состоит из трех новелл, объединенных фигурой главного героя Шурика, попадающего в самые невероятные ситуации. В «Напарнике» Шурик сражается с хулиганом Верзилой; в «Наваждении» весьма оригинальным способом готовится к экзамену; в «Операции «Ы» предотвращает «ограбление века», на которое идет знаменитая тройка - Балбес, Трус и Бывалый.-- --

MediaInfo

General
Complete name : Operatsiya.Y.I.Drugie.Priklyucheniya.Shurika.1965.RUS.BDRip.XviD.AC3.-HQ-ViDEO.avi
Format : AVI
Format/Info : Audio Video Interleave
File size : 1.45 GiB
Duration : 1h 34mn
Overall bit rate : 2 203 Kbps
Movie name : Operatsiya "Y" I Drugie Priklyucheniya Shurika (1965)
Director : Vaippp
Genre : Comedy/Romance
Writing application : VirtualDubModRus 1.5.10.2 (build 2542/release)
Original source form/Name : Movie
Copyright : HQ-ViDEO
Comment : BDRip
Video
ID : 0
Format : MPEG-4 Visual
Format profile : Advanced [email protected]
Format settings, BVOP : Yes
Format settings, QPel : No
Format settings, GMC : No warppoints
Format settings, Matrix : Custom
Codec ID : XVID
Codec ID/Hint : XviD
Duration : 1h 34mn
Bit rate : 1 745 Kbps
Width : 720 pixels
Height : 544 pixels
Display aspect ratio : 4:3
Frame rate : 23.976 fps
Color space : YUV
Chroma subsampling : 4:2:0
Bit depth : 8 bits
Scan type : Progressive
Bits/(Pixel*Frame) : 0.186
Stream size : 1.15 GiB (79%)
Writing library : XviD 73
Audio
ID : 1
Format : AC-3
Format/Info : Audio Coding 3
Mode extension : CM (complete main)
Codec ID : 2000
Duration : 1h 34mn
Bit rate mode : Constant
Bit rate : 448 Kbps
Channel(s) : 6 channels
Channel positions : Front: L C R, Side: L R, LFE
Sampling rate : 48.0 KHz
Bit depth : 16 bits
Stream size : 303 MiB (20%)
Alignment : Split accross interleaves
Interleave, duration : 42 ms (1.00 video frame)
Interleave, preload duration : 500 ms
--
Дополнительная информация :

Кинонаграды «MTV-Россия», 2009 год
Лучший советский фильм--Тех.Данные :
Качество: BDRip (источник: / Blu-ray / 1080p)
Формат: AVI
Видео: 720x544 (4:3), 23,976 fps, XviD build 65 ~1745 kbps avg, 0.22 bit/pixel
Аудио: 48 kHz, AC3 Dolby Digital, 3/2 (L,C,R,l,r) + LFE ch, ~448.00 kbps avg-- --

Кавказская пленница, или новые приключения Шурика (1967) BDRip

--Кавказская пленница, или новые приключения Шурика-- Название: Кавказская пленница, или новые приключения Шурика
Год выхода: 1967
Страна: СССР
Студия: Мосфильм
Жанр: Мелодрама, Комедия, Приключения, Семейный, Музыка
Продолжительность: 01:19:53
--Режиссер: Леонид Гайдай--В ролях: Александр Демьяненко, Наталья Варлей, Руслан Ахметов, Юрий Никулин, Георгий Вицин, Евгений Моргунов, Владимир Этуш, Фрунзик Мкртчян, Нина Гребешкова, Михаил Глузский, Георгий Милляр, Эммануил Геллер, Петр Репнин, Ной Авалиани, Донара Мкртчян, Александр Строев, Вахтанг Кикабидзе, Михаил Содорский, Богдан Галустян, Георгий Светлани, Олег Севостьянов, Леонид Довлатов, Георгий Ахундов, Эдуард Абалов, Владислав Лынковский, Шота Харабадзе--О фильме:Отправившись в одну из горных республик собирать фольклор, герой фильма Шурик влюбляется в симпатичную девушку — «спортсменку, отличницу, и просто красавицу». Но ее неожиданно похищают, чтобы насильно выдать замуж.
Наивный Шурик не сразу смог сообразить, что творится у него под носом, — однако затем отважно ринулся освобождать «кавказскую пленницу»…
-- --

MediaInfo

General
Complete name : Kavkazskaya.Plennica.Ili.Novye.Priklyucheniya.Shurika.1967.RUS.BDRip.XviD.AC3.-HQ-ViDEO.avi
Format : AVI
Format/Info : Audio Video Interleave
File size : 1.46 GiB
Duration : 1h 19mn
Overall bit rate : 2 611 Kbps
Movie name : Кавказская пленница, или новые приключения Шурика / Kavkazskaya plennitsa, ili Novye priklyucheniya Shurika (1967)
Director : MECHANICAL ENGINEER (Blu-Ray)
Writing application : VirtualDubMod 1.5.10.3 | www.virtualdub-fr.org || (build 2550/release)
Copyright : HQ-ViDEO (www.hq-video.org)
Comment : 19.07.2011
Video
ID : 0
Format : MPEG-4 Visual
Format profile : Advanced [email protected]
Format settings, BVOP : Yes
Format settings, QPel : No
Format settings, GMC : No warppoints
Format settings, Matrix : Custom
Codec ID : XVID
Codec ID/Hint : XviD
Duration : 1h 19mn
Bit rate : 2 218 Kbps
Width : 704 pixels
Height : 512 pixels
Display aspect ratio : 1.375
Frame rate : 23.976 fps
Color space : YUV
Chroma subsampling : 4:2:0
Bit depth : 8 bits
Scan type : Progressive
Bits/(Pixel*Frame) : 0.257
Stream size : 1.24 GiB (85%)
Writing library : XviD 63
Audio
ID : 1
Format : AC-3
Format/Info : Audio Coding 3
Mode extension : CM (complete main)
Codec ID : 2000
Duration : 1h 19mn
Bit rate mode : Constant
Bit rate : 384 Kbps
Channel(s) : 6 channels
Channel positions : Front: L C R, Side: L R, LFE
Sampling rate : 48.0 KHz
Bit depth : 16 bits
Stream size : 219 MiB (15%)
Alignment : Split accross interleaves
Interleave, duration : 42 ms (1.00 video frame)
Interleave, preload duration : 500 ms
Tех.Данные :
Качество : BDRip
Файл : AVI
Кодек : XviD, build 63 codec
Видео : 704 x 512; 23.976 fps; 2218 kbps; 0.26 bit/pixel
Аудио : 48 kHz; 5.1 ch; 384.00 kbps; AC3 Dolby Digital
-- --

Бриллиантовая рука (1968) BDRip

Бриллиантовая рука
--Название : Бриллиантовая рука
Страна: СССР
Студия : Мосфильм
Жанр: комедия, криминал, приключения, семейный
Год выпуска: 1968
Продолжительность: 01:38:20
--Режиссер: Леонид Гайдай--В ролях: Юрий Никулин, Андрей Миронов, Анатолий Папанов, Нина Гребешкова, Станислав Чекан, Владимир Гуляев, Нонна Мордюкова, Светлана Светличная, Роман Филиппов, Григорий Шпигель, Леонид Каневский, Игорь Ясулович--Описание:

Кинороман из жизни контрабандистов с прологом и эпилогом. В южном городке орудует шайка «валютчиков», возглавляемая Шефом и его помощником Графом. Скромный советский служащий и примерный семьянин Семен Семеныч Горбунков отправляется в зарубежный круиз на теплоходе, на котором также плывет Граф, который должен забрать бриллианты в одном из восточных городов и провезти их в загипсованной руке. Но в силу недоразумения вместо жулика на условленном месте падает ничего не подозревающий Семен Семенович и драгоценный гипс накладывают ему. Вот тут-то все и начинается...
-- --

MediaInfo

General
Complete name : Brilliantovaya.Ruka.1968.RUS.BDRip.XviD.AC3.-HQ-ViDEO.avi
Format : AVI
Format/Info : Audio Video Interleave
File size : 1.45 GiB
Duration : 1h 38mn
Overall bit rate : 2 118 Kbps
Movie name : Brilliantovaya Ruka (1968)
Director : Vaippp
Genre : Comedy/Crime
Writing application : VirtualDubModRus 1.5.10.2 (build 2542/release)
Original source form/Name : Movie
Copyright : HQ-ViDEO
Comment : BDRip
Video
ID : 0
Format : MPEG-4 Visual
Format profile : Advanced [email protected]
Format settings, BVOP : Yes
Format settings, QPel : No
Format settings, GMC : No warppoints
Format settings, Matrix : Custom
Codec ID : XVID
Codec ID/Hint : XviD
Duration : 1h 38mn
Bit rate : 1 660 Kbps
Width : 720 pixels
Height : 304 pixels
Display aspect ratio : 2.35:1
Frame rate : 23.976 fps
Color space : YUV
Chroma subsampling : 4:2:0
Bit depth : 8 bits
Scan type : Progressive
Bits/(Pixel*Frame) : 0.316
Stream size : 1.14 GiB (78%)
Writing library : XviD 64
Audio
ID : 1
Format : AC-3
Format/Info : Audio Coding 3
Mode extension : CM (complete main)
Codec ID : 2000
Duration : 1h 38mn
Bit rate mode : Constant
Bit rate : 448 Kbps
Channel(s) : 6 channels
Channel positions : Front: L C R, Side: L R, LFE
Sampling rate : 48.0 KHz
Bit depth : 16 bits
Stream size : 315 MiB (21%)
Alignment : Split accross interleaves
Interleave, duration : 42 ms (1.00 video frame)
Interleave, preload duration : 500 ms
Дополнительная информация :
Государственная премия РСФСР в 1970 году — Леониду Гайдаю и Юрию Никулину «за участие в создании кинокомедий последних лет»
--Тех.Данные :
Качество: BDRip
Формат: AVI
Видео: XviD / 720 x 304 / 2.35:1 / 1660 kbps / 23,976 fps
Аудио: Русский / AC3 Dolby Digital / 48 KHz / 448 kbps / 3/2 (L,C,R,l,r) + LFE ch
-- -- --

Джентльмены удачи (1971) BDRip

--Джентльмены удачи --Название: Джентльмены удачи
Год выхода: 1971
Страна: СССР
Студия: Мосфильм
Жанр: драма, комедия, криминал, детектив
Продолжительность: 01:26:43
--Режиссер: Александр Серый--В ролях: Евгений Леонов, Георгий Вицин, Раднэр Муратов, Савелий Крамаров, Наталья Фатеева, Эраст Гарин, Николай Олялин, Анатолий Папанов, Павел Шпрингфельд, Любовь Соколова--О фильме:

Заведующему детсадом Трошкину фатально не повезло: он оказался как две капли воды похож на бандита по кличке «Доцент», похитившего уникальный шлем Александра Македонского.
Милиция внедряет добряка Трошкина в воровскую среду - и ему ничего не остается, кроме как старательно изображать своего двойника-злодея, путая всех окружающих. Со временем он настолько блестяще входит в роль, что сам начинает порой приходить в ужас. Между тем, жизни его угрожает смертельная опасность...
-- --

MediaInfo

General
Complete name : Dzhentlmeny.udachi.1971.RUS.BDRip.XviD.AC3.-HQCLUB.avi
Format : AVI
Format/Info : Audio Video Interleave
File size : 1.45 GiB
Duration : 1h 26mn
Overall bit rate : 2 396 Kbps
Movie name : Джентльмены удачи (1971) BDRip
Director : kingsize87
Writing application : VirtualDubMod 1.5.10.2 (build 2542/release)
Copyright : HQCLUB
Comment : 16.03.2012
Video
ID : 0
Format : MPEG-4 Visual
Format profile : Advanced [email protected]
Format settings, BVOP : Yes
Format settings, QPel : No
Format settings, GMC : No warppoints
Format settings, Matrix : Custom
Codec ID : XVID
Codec ID/Hint : XviD
Duration : 1h 26mn
Bit rate : 1 939 Kbps
Width : 720 pixels
Height : 544 pixels
Display aspect ratio : 4:3
Frame rate : 23.976 fps
Color space : YUV
Chroma subsampling : 4:2:0
Bit depth : 8 bits
Scan type : Progressive
Bits/(Pixel*Frame) : 0.206
Stream size : 1.17 GiB (81%)
Writing library : XviD 64
Audio
ID : 1
Format : AC-3
Format/Info : Audio Coding 3
Mode extension : CM (complete main)
Codec ID : 2000
Duration : 1h 26mn
Bit rate mode : Constant
Bit rate : 448 Kbps
Channel(s) : 6 channels
Channel positions : Front: L C R, Side: L R, LFE
Sampling rate : 48.0 KHz
Bit depth : 16 bits
Stream size : 278 MiB (19%)
Alignment : Split accross interleaves
Interleave, duration : 42 ms (1.00 video frame)
Interleave, preload duration : 500 ms
--Тех.Данные :
Качество: BDRip (источник: Blu-ray Disc / 1080p)
Формат: AVI
Видео: 720x544 (4:3), 23,976 fps, XviD build 64 ~1939 kbps avg, 0.20 bit/pixel
Аудио: 48 kHz, AC3 Dolby Digital, 3/2 (L,C,R,l,r) + LFE ch, ~448.00 kbps avg
-- -- --
-- -- --

Создавать темы 18-Окт-2014 14:59

[Профиль]  [ЛС] 

xumoyun2550

Стаж: 5 лет 7 месяцев

Сообщений: 98

Симпатии: 2

Класс оформлений +5 от меня

Создавать темы 19-Окт-2014 00:56

[Профиль]  [ЛС] 

Dustmurod

Стаж: 4 года 6 месяцев

Сообщений: 21

Когда начинается раздача? модераторы ещё не закончивали проверку?!

Создавать темы 19-Окт-2014 09:42

[Профиль]  [ЛС] 

gre-g

Стаж: 5 лет 6 месяцев

Сообщений: 20

Симпатии: 1

Старая Классика, долгая премодерация!

Создавать темы 20-Окт-2014 13:36

[Профиль]  [ЛС] 
Показать сообщения:    
Ответить на тему

Текущее время: 19-Авг 21:36

Часовой пояс: UTC + 5



Вы не можете начинать темы
Вы не можете отвечать на сообщения
Вы не можете редактировать свои сообщения
Вы не можете удалять свои сообщения
Вы не можете голосовать в опросах
Вы не можете прикреплять файлы к сообщениям
Вы не можете скачивать файлы