Одно движение Божье / Ход Бога / God's One Move / The Divine Move (Пом-ку Чжо) [2014 г., драма, криминал, боевик, HDRip]

Ответить на тему
 

lotto ®

Стаж: 7 лет 11 месяцев

Сообщений: 221

Симпатии: 409

Одно движение Божье / Ход Бога
God's One Move / The Divine Move
-- Год выпуска: 2014
Страна: Корея Южная
Жанр: драма, криминал, боевик
Продолжительность: 01:57:49
Перевод: Любительский (двухголосый) (DeadSno & den904)--Режиссер: Пом-ку Чжо
В ролях: Ан Киль Кан, Ан Сон Ги, Чхве Чжин Хёк, Чон У Сон, Ким Ин Квон, Ли Бом Су, Ли Си Ён
Описание: Тэ-сок — профессиональный игрок в Го. Его брат любил играть в Го на деньги и был убит группировкой шулеров. Освободившись из тюрьмы, Тэ-сок собирает команду единомышленников и ставит перед собой цель — отомстить за смерть брата.-- --Качество: HDRip
Формат: AVI
Видео кодек: XviD
Аудио кодек: AC3
Видео: XVID, 2280 Кбит/сек, 720 x 304
Аудио: AC3, 2 ch, 192 Кбит/с - русский

MediaInfo

Video
ID : 0
Format : MPEG-4 Visual
Format profile : Advanced [email protected]L5
Format settings, BVOP : Yes
Format settings, QPel : No
Format settings, GMC : No warppoints
Format settings, Matrix : Custom
Codec ID : XVID
Codec ID/Hint : XviD
Duration : 1h 57mn
Bit rate : 2 280 Kbps
Width : 720 pixels
Height : 304 pixels
Display aspect ratio : 2.35:1
Frame rate : 23.976 fps
Color space : YUV
Chroma subsampling : 4:2:0
Bit depth : 8 bits
Scan type : Progressive
Compression mode : Lossy
Bits/(Pixel*Frame) : 0.434
Stream size : 1.88 GiB (92%)
Writing library : XviD 64
Audio
ID : 1
Format : AC-3
Format/Info : Audio Coding 3
Mode extension : CM (complete main)
Format settings, Endianness : Big
Codec ID : 2000
Duration : 1h 57mn
Bit rate mode : Constant
Bit rate : 192 Kbps
Channel(s) : 2 channels
Channel positions : Front: L R
Sampling rate : 48.0 KHz
Bit depth : 16 bits
Compression mode : Lossy
Stream size : 162 MiB (8%)
Alignment : Aligned on interleaves
Interleave, duration : 64 ms (1.53 video frames)
Interleave, preload duration : 192 ms

Скриншоты





Создавать темы 18-Окт-2014 23:00

[Профиль]  [ЛС] 
Показать сообщения:    
Ответить на тему

Текущее время: 18-Дек 12:12

Часовой пояс: UTC + 5



Вы не можете начинать темы
Вы не можете отвечать на сообщения
Вы не можете редактировать свои сообщения
Вы не можете удалять свои сообщения
Вы не можете голосовать в опросах
Вы не можете прикреплять файлы к сообщениям
Вы не можете скачивать файлы