Нация Z / Z Nation / Сезон: 1 / Серии: 1-13 из 13 (Джон Хайамс, Абрам Кокс, Рэйчел Голденберг) [2014, хоррор, экшен, зомби, апокалипсис, WEB-DLRip] MVO Lostfilm + MVO B&K + Original

Страницы :  1, 2  След.

Ответить на тему
 

Zab ®

Стаж: 6 лет 3 месяца

Сообщений: 476

Симпатии: 424

--Нация Z | Z Nation-- Год выпуска: 2014
Страна: США
Жанр: экшен, хоррор, зомби, апокалипсис
Продолжительность: ~ 00:43:00-Перевод: Профессиональный (многоголосый закадровый) | [Lostfilm], [BaibaKo]
Режиссёр: Джон Хайамс, Абрам Кокс, Рэйчел Голденберг-В ролях: Гарольд Перрино, Том Эверетт Скотт, Ди Джей Куаллс, Майкл Уэлш, Келлита Смит, Анастасия Баранова, Расселл Ходжкинсон, Кит Аллан-Описание: Спустя три года после того, как вирус зомби распространился и выпотрошил всю страну, команда героев должна перевезти единственного известного оставшегося в живых от действия чумы из Нью-Йорка в Калифорнию, где последняя функционирующая вирусная лаборатория ждет его крови. Хотя антитела, которые он несет, являются последней надеждой мира получить вакцину, он скрывает мрачную тайну, которая угрожает им всем. Выживание человечества под угрозой, когда разношерстная группа предпринимает путешествие длиной в пять тысяч километров по опустошенной, постапокалиптической Америке.-Качество: WEB-DLRip
Формат: AVI
Видео кодек: XviD
Аудио кодек: MP3-Видео: ~ 1500 kbps, 720x400 (16:9), 23,976 fps, 0.217 bit/pixel
Аудио 1: mp3, 48,0 КГц, 2 ch, 192 kbps - Rus [Lostfilm]
Аудио 2: mp3, 48,0 КГц, 2 ch, 192 kbps - Rus [BaibaKo]
Аудио 3: mp3, 48,0 КГц, 2 ch, 192 kbps - Eng Original
Субтитры: отсутствуют
-

График выхода новых серий

1 сезон
  • 12.09.2014 01 Puppies and Kittens
  • 19.09.2014 02 Fracking Zombies
  • 26.09.2014 03 Philly Feast
  • 03.10.2014 04 Full Metal Zombie
  • 10.10.2014 05 Home Sweet Zombie
  • 17.10.2014 06 Resurrection Z
  • 24.10.2014 07 Welcome to the Fu-Bar
  • 31.10.2014 08 Zunami
  • 07.11.2014 09 Die, Zombie, Die... Again
  • 14.11.2014 10 Going Nuclear
  • 21.11.2014 11 Sisters of Mercy
  • 28.11.2014 12 Murphy's Law
  • MediaInfo

    Общее
    Формат                                   : AVI
    Формат/Информация                        : Audio Video Interleave
    Размер файла                             : 583 Мбайт
    Продолжительность                        : 43 м.
    Общий поток                              : 1896 Кбит/сек
    Программа кодирования                    : VirtualDubMod 1.5.10.3 | www.virtualdub-fr.org || (build 2550/release)
    Библиотека кодирования                   : VirtualDubMod build 2550/release
    Видео
    Идентификатор                            : 0
    Формат                                   : MPEG-4 Visual
    Профиль формата                          : Advanced [email protected]
    Параметр BVOP формата                    : Да
    Параметр QPel формата                    : Нет
    Параметр GMC формата                     : Без точки перехода
    Параметр матрицы формата                 : Default (H.263)
    Идентификатор кодека                     : XVID
    Идентификатор кодека/Подсказка           : XviD
    Продолжительность                        : 43 м.
    Битрейт                                  : 1498 Кбит/сек
    Ширина                                   : 720 пикселей
    Высота                                   : 400 пикселей
    Соотношение сторон                       : 16:9
    Частота кадров                           : 23,976 кадра/сек
    Цветовое пространство                    : YUV
    Субдискретизация насыщенности            : 4:2:0
    Битовая глубина                          : 8 бит
    Тип развёртки                            : Прогрессивная
    Метод сжатия                             : С потерями
    Бит/(Пиксели*Кадры)                      : 0.217
    Размер потока                            : 461 Мбайт (79%)
    Библиотека кодирования                   : XviD 73
    Аудио #1
    Идентификатор                            : 1
    Формат                                   : MPEG Audio
    Версия формата                           : Version 1
    Профиль формата                          : Layer 3
    Режим                                    : Joint stereo
    Расширение режима                        : MS Stereo
    Идентификатор кодека                     : 55
    Идентификатор кодека/Подсказка           : MP3
    Продолжительность                        : 43 м.
    Вид битрейта                             : Постоянный
    Битрейт                                  : 192 Кбит/сек
    Каналы                                   : 2 канала
    Частота                                  : 48,0 КГц
    Метод сжатия                             : С потерями
    Размер потока                            : 59,1 Мбайт (10%)
    Выравнивание                             : Соединение по промежуткам
    Продолжительность промежутка             : 42  мс. (1,00 видеокадр)
    Время предзагрузки промежутка            : 504  мс.
    Аудио #2
    Идентификатор                            : 2
    Формат                                   : MPEG Audio
    Версия формата                           : Version 1
    Профиль формата                          : Layer 3
    Режим                                    : Joint stereo
    Идентификатор кодека                     : 55
    Идентификатор кодека/Подсказка           : MP3
    Продолжительность                        : 43 м.
    Вид битрейта                             : Постоянный
    Битрейт                                  : 192 Кбит/сек
    Каналы                                   : 2 канала
    Частота                                  : 48,0 КГц
    Метод сжатия                             : С потерями
    Размер потока                            : 59,1 Мбайт (10%)
    Выравнивание                             : Соединение по промежуткам
    Продолжительность промежутка             : 42  мс. (1,00 видеокадр)
    Время предзагрузки промежутка            : 504  мс.

    Скриншоты





    Последний раз редактировалось: Zab (2015-03-05 16:02), всего редактировалось 12 раз(а)

    Создавать темы 20-Окт-2014 09:24

    [Профиль]  [ЛС] 

    Zab ®

    Стаж: 6 лет 3 месяца

    Сообщений: 476

    Симпатии: 424

    :cd: добавлена 6 - серия! :cc:

    Создавать темы 20-Окт-2014 09:25

    [Профиль]  [ЛС] 

    Zab ®

    Стаж: 6 лет 3 месяца

    Сообщений: 476

    Симпатии: 424

    :cd: добавлена 7 - серия! :cc:

    Создавать темы 31-Окт-2014 11:41

    [Профиль]  [ЛС] 

    Uzel

    Стаж: 6 лет 3 месяца

    Сообщений: 923

    Симпатии: 53

    Первый скрин Fallout 3 напоминает))) Спасибо за сериал!

    Создавать темы 31-Окт-2014 11:46

    [Профиль]  [ЛС] 

    Чингиз

    Стаж: 5 лет 6 месяцев

    Сообщений: 37

    Симпатии: 20

    А где ярлык на скачивание?

    Создавать темы 03-Ноя-2014 11:08

    [Профиль]  [ЛС] 

    Zab ®

    Стаж: 6 лет 3 месяца

    Сообщений: 476

    Симпатии: 424

    :cd: добавлена 8 - серия! :cc:

    Создавать темы 03-Ноя-2014 11:47

    [Профиль]  [ЛС] 

    Zab ®

    Стаж: 6 лет 3 месяца

    Сообщений: 476

    Симпатии: 424

    :cd: добавлена 9 - серия! :cc:

    Создавать темы 11-Ноя-2014 08:30

    [Профиль]  [ЛС] 

    faceman

    Стаж: 5 лет 7 месяцев

    Сообщений: 27

    Симпатии: 1

    Как сериал?

    Создавать темы 14-Ноя-2014 23:26

    [Профиль]  [ЛС] 

    Zab ®

    Стаж: 6 лет 3 месяца

    Сообщений: 476

    Симпатии: 424

    :cd: добавлена 10 - серия! :cc:

    Создавать темы 17-Ноя-2014 09:43

    [Профиль]  [ЛС] 

    Zab ®

    Стаж: 6 лет 3 месяца

    Сообщений: 476

    Симпатии: 424

    :cd: добавлена 11 - серия! :cc:

    Создавать темы 24-Ноя-2014 11:05

    [Профиль]  [ЛС] 

    Zab ®

    Стаж: 6 лет 3 месяца

    Сообщений: 476

    Симпатии: 424

    :cd: Добавлена 12 - серия! :cc:

    Создавать темы 01-Дек-2014 12:18

    [Профиль]  [ЛС] 

    Zab ®

    Стаж: 6 лет 3 месяца

    Сообщений: 476

    Симпатии: 424

    :cd: Добавлена 13 - серия! ФИНАЛ Сезона! :cc:

    Создавать темы 08-Дек-2014 15:44

    [Профиль]  [ЛС] 

    Вадим123

    Стаж: 4 года 4 месяца

    Сообщений: 117

    Симпатии: 7

    Спасибо! Будем смотреть теперь.

    Создавать темы 08-Дек-2014 16:49

    [Профиль]  [ЛС] 

    Neon

    Стаж: 6 лет 10 месяцев

    Сообщений: 4

    Симпатии: 1

    А когда будет второй сезон? Интересно дойдут они или нет.

    Создавать темы 12-Дек-2014 00:27

    [Профиль]  [ЛС] 

    Wanderings

    Стаж: 3 года 8 месяцев

    Сообщений: 95

    Симпатии: 95

    скорости ребята! скорости! качает по 0 кбсек, даштожэтотакое!?

    Создавать темы 27-Авг-2015 23:21

    [Профиль]  [ЛС] 
    Показать сообщения:    
    Ответить на тему

    Текущее время: 17-Авг 18:46

    Часовой пояс: UTC + 5



    Вы не можете начинать темы
    Вы не можете отвечать на сообщения
    Вы не можете редактировать свои сообщения
    Вы не можете удалять свои сообщения
    Вы не можете голосовать в опросах
    Вы не можете прикреплять файлы к сообщениям
    Вы не можете скачивать файлы