[#242]Миллионер из Трущоб / Slumdog Millionaire (Дэнни Бойл, Лавлин Тандан) [2008, Драма | Мелодрама | Криминал, BDRip-AVC]

Ответить на тему
 

razor2011 ®

Стаж: 5 лет 3 месяца

Сообщений: 227

Симпатии: 37

Миллионер из Трущоб / Slumdog Millionaire«Что может вернуть любовь?»
--Год выпуска: 2008
Страна: Великобритания | Celador Films | Film4
Жанр: Драма | Мелодрама | Криминал
Продолжительность: 02:00:08
Перевод:Профессиональный (полное дублирование)
Навигация по главам: Есть
Субтитры: Есть
Режиссер: Дэнни Бойл / Danny Boyle, Лавлин Тандан / Loveleen Tandan
В ролях: Дев Патель, Анил Капур, Саурабх Шукла, Рахендранат Зутши, Женева Талвар, Фрейда Пинто, Ирфан Кхан, Ажаруддин Мохаммед Измаил, Аюш Махеш Кхедекар, Сунил Кумар Агравал, Жира Банжара, Шейх Вали, Mahesh Manjrekar, Sanchita Couhdary, Химаншу Тьяги, Шариб Хашми, Virendra Chatterjee, Фероуз Кхан, Virender Kumar, Девеш Раваль, Рубина Али-Описание: Джамал Малик, 18-летний сирота из трущоб в Мумбаи, всего в одном шаге от победы в телеигре «Кто хочет стать миллионером?» и выигрыша 20 миллионов рупий. Прервав игру, его арестовывает полиция по подозрению в мошенничестве. Откуда юнец, выросший на улице, может знать так много?- 

Качество: BDRip-AVC [BDRemux]
Формат: MKV
Видео: х.264, 1040x432 (2,40:1), 23,976 fps, 2576 Кbps, 0.239 bit/pixel
Аудио#1: 48 kHz, AC3 Dolby Digital, 3/2 (L,C,R,l,r) + LFE ch, 448.00 kbps | RUS
Аудио#2: 48 kHz, AC3 Dolby Digital, 3/2 (L,C,R,l,r) + LFE ch, 448.00 kbps | ENG
Субтитры: Русские, английские UTF-8

MI

D:\ìîè ôèëüìû\Millioner.iz.Truzshjob.2008.DUAL.BDRip.x264.-HELLYWOOD.mkv
General
Unique ID : 172017083647486306618621570579574473250 (0x816949051D391F889A4739C70F06C222)
Complete name : D:\ìîè ôèëüìû\Millioner.iz.Truzshjob.2008.DUAL.BDRip.x264.-.mkv
Format : Matroska
Format version : Version 4 / Version 2
File size : 2.91 GiB
Duration : 2h 0mn
Overall bit rate : 3 460 Kbps
Movie name : HELLYWOOD - rip by potroks
Encoded date : UTC 2013-12-31 22:20:14
Writing application : mkvmerge v5.9.0 ('On The Loose') built on Dec 15 2012 16:39:58
Writing library : libebml v1.3.0 + libmatroska v1.4.0
Video #1
ID : 1
Format : AVC
Format/Info : Advanced Video Codec
Format profile : [email protected]
Format settings, CABAC : Yes
Format settings, ReFrames : 11 frames
Codec ID : V_MPEG4/ISO/AVC
Duration : 2h 0mn
Bit rate : 2 576 Kbps
Width : 1 040 pixels
Height : 432 pixels
Display aspect ratio : 2.40:1
Frame rate mode : Constant
Frame rate : 23.976 fps
Color space : YUV
Chroma subsampling : 4:2:0
Bit depth : 8 bits
Scan type : Progressive
Bits/(Pixel*Frame) : 0.239
Stream size : 2.10 GiB (72%)
Title : Slumdog Millionaire
Writing library : x264 core 130 r2273 b3065e6
Encoding settings : cabac=1 / ref=11 / deblock=1:-3:-2 / analyse=0x3:0x133 / me=umh / subme=11 / psy=1 / psy_rd=1.05:0.00 / mixed_ref=1 / me_range=32 / chroma_me=1 / trellis=2 / 8x8dct=1 / cqm=0 / deadzone=21,11 / fast_pskip=0 / chroma_qp_offset=-2 / threads=9 / lookahead_threads=6 / sliced_threads=0 / nr=0 / decimate=0 / interlaced=0 / bluray_compat=0 / constrained_intra=0 / bframes=12 / b_pyramid=2 / b_adapt=2 / b_bias=0 / direct=3 / weightb=1 / open_gop=0 / weightp=2 / keyint=250 / keyint_min=23 / scenecut=40 / intra_refresh=0 / rc_lookahead=60 / rc=2pass / mbtree=0 / bitrate=2576 / ratetol=1.0 / qcomp=0.70 / qpmin=0 / qpmax=69 / qpstep=4 / cplxblur=20.0 / qblur=0.5 / vbv_maxrate=20000 / vbv_bufsize=25000 / nal_hrd=none / ip_ratio=1.35 / pb_ratio=1.25 / aq=1:0.80
Language : English
Default : Yes
Forced : No
Audio #2
ID : 2
Format : AC-3
Format/Info : Audio Coding 3
Mode extension : CM (complete main)
Format settings, Endianness : Big
Codec ID : A_AC3
Duration : 2h 0mn
Bit rate mode : Constant
Bit rate : 448 Kbps
Channel(s) : 6 channels
Channel positions : Front: L C R, Side: L R, LFE
Sampling rate : 48.0 KHz
Bit depth : 16 bits
Compression mode : Lossy
Stream size : 386 MiB (13%)
Title : Dub | DD 5.1 @ 448 kbps - BD RUS
Language : Russian
Default : Yes
Forced : Yes
Audio #3
ID : 3
Format : AC-3
Format/Info : Audio Coding 3
Mode extension : CM (complete main)
Format settings, Endianness : Big
Codec ID : A_AC3
Duration : 2h 0mn
Bit rate mode : Constant
Bit rate : 448 Kbps
Channel(s) : 6 channels
Channel positions : Front: L C R, Side: L R, LFE
Sampling rate : 48.0 KHz
Bit depth : 16 bits
Compression mode : Lossy
Stream size : 386 MiB (13%)
Title : Original | DD 5.1 @ 448 kbps
Language : English
Default : No
Forced : No
Text #4
ID : 4
Format : UTF-8
Codec ID : S_TEXT/UTF8
Codec ID/Info : UTF-8 Plain Text
Language : Russian
Default : No
Forced : No
Text #5
ID : 5
Format : UTF-8
Codec ID : S_TEXT/UTF8
Codec ID/Info : UTF-8 Plain Text
Language : English
Default : No
Forced : No

скриншоты



Создавать темы 20-Окт-2014 10:11

[Профиль]  [ЛС] 

sharqona

Стаж: 4 года 7 месяцев

Сообщений: 15

Почему не качает ?

Создавать темы 29-Окт-2014 16:19

[Профиль]  [ЛС] 

razor2011 ®

Стаж: 5 лет 3 месяца

Сообщений: 227

Симпатии: 37

я раздаю 24 часа 7 дней в неделю !!! проблема у вас, настройте свой клиент !!!

Создавать темы 07-Ноя-2014 08:53

[Профиль]  [ЛС] 

Akmal89

Стаж: 5 лет 8 месяцев

Сообщений: 237

Симпатии: 99

скорость пожалуйста

Создавать темы 07-Фев-2015 16:46

[Профиль]  [ЛС] 

RoRik-98

Стаж: 5 лет 1 месяц

Сообщений: 19

Симпатии: 1

Классный фильм.Советую посмотреть =)

Создавать темы 08-Фев-2015 15:56

[Профиль]  [ЛС] 

nolan94

Стаж: 2 года 2 месяца

Сообщений: 4

Симпатии: 3

pls dayte skorost! ya potom budu razdat! pls

Создавать темы 09-Апр-2016 22:24

[Профиль]  [ЛС] 
Показать сообщения:    
Ответить на тему

Текущее время: 11-Дек 16:26

Часовой пояс: UTC + 5



Вы не можете начинать темы
Вы не можете отвечать на сообщения
Вы не можете редактировать свои сообщения
Вы не можете удалять свои сообщения
Вы не можете голосовать в опросах
Вы не можете прикреплять файлы к сообщениям
Вы не можете скачивать файлы