Девушка из Монако / La fille de Monaco (Анн Фонтен) (2008 г., драма, комедия, HDRip) Лицензия

Ответить на тему
 

SNation ®

Стаж: 4 года 4 месяца

Сообщений: 81

Симпатии: 70

Девушка из Монако / La fille de Monaco- Выпущено: Франция, Soudaine Compagnie
Жанр: драма, комедия
Год выпуска: 2008
Продолжительность: 01:30:15
Перевод: Профессиональный (полное дублирование) Лицензия

Режиссер:
Анн Фонтен
В ролях:
Фабрис Лукини, Рошди Зем, Стефан Одран, Жиль Коэн, Александр Стайгер, Филипп Дюкло, Жанна Балибар, Элен де Сен-Пер, Луиз Бургуан, Кристоф Ван Де Вельде
О фильме:
Преуспевающий адвокат приезжает в Монако, чтобы защищать клиента в суде. Но думать о работе не получается: он влюбляется в роковую красотку. Эта дерзкая и нахальная чертовка превращает жизнь несчастного в настоящую катастрофу. К счастью, рядом с нашим героем есть доблестный телохранитель, который, поможет клиенту сконцентрироваться на работе. Но захочет ли этого новоявленный Ромео?
 -Качество:HDRip
Формат:AVI
Видео:XVID,1 854 Kbps,720х304, 25.000 fps
Аудио:AC3, 448 Kbps, 6 channels

Награды и номинации

Сезар, 2009 год
Номинации (2):
* Самая многообещающая актриса (Луиз Бургуан)
* Лучший актер второго плана (Рошди Зем)

Скриншоты





MediaInfo

General
Complete name                            : D:\Девушка из Монако.avi
Format                                   : AVI
Format/Info                              : Audio Video Interleave
File size                                : 1.46 GiB
Duration                                 : 1h 30mn
Overall bit rate                         : 2 312 Kbps
Director                                 : tide
Writing application                      : VirtualDubMod 1.5.10.2 (build 2540/release)
Video
ID                                       : 0
Format                                   : MPEG-4 Visual
Format profile                           : Advanced [email protected]
Format settings, BVOP                    : 1
Format settings, QPel                    : No
Format settings, GMC                     : No warppoints
Format settings, Matrix                  : Custom
Codec ID                                 : XVID
Codec ID/Hint                            : XviD
Duration                                 : 1h 30mn
Bit rate                                 : 1 854 Kbps
Width                                    : 720 pixels
Height                                   : 304 pixels
Display aspect ratio                     : 2.35:1
Frame rate                               : 25.000 fps
Color space                              : YUV
Chroma subsampling                       : 4:2:0
Bit depth                                : 8 bits
Scan type                                : Progressive
Compression mode                         : Lossy
Bits/(Pixel*Frame)                       : 0.339
Stream size                              : 1.17 GiB (80%)
Writing library                          : XviD 57
Audio
ID                                       : 1
Format                                   : AC-3
Format/Info                              : Audio Coding 3
Mode extension                           : CM (complete main)
Format settings, Endianness              : Big
Codec ID                                 : 2000
Duration                                 : 1h 30mn
Bit rate mode                            : Constant
Bit rate                                 : 448 Kbps
Channel(s)                               : 6 channels
Channel positions                        : Front: L C R, Side: L R, LFE
Sampling rate                            : 48.0 KHz
Bit depth                                : 16 bits
Compression mode                         : Lossy
Stream size                              : 289 MiB (19%)
Alignment                                : Split accross interleaves
Interleave, duration                     : 40 ms (1.00 video frame)
Interleave, preload duration             : 500 ms

Создавать темы 21-Окт-2014 08:02

[Профиль]  [ЛС] 

FireHowler

Стаж: 4 года 3 месяца

Сообщений: 270

Симпатии: 153

Зачем вы тыкаете "Позвать скачавших" если еще никто не скачал?

Создавать темы 22-Окт-2014 09:02

[Профиль]  [ЛС] 

SNation ®

Стаж: 4 года 4 месяца

Сообщений: 81

Симпатии: 70

Скорость более менее нормализовалась, а то после дождя инет вообще упал))! Надеюсь через пару часиков многие уже докачают!!

Создавать темы 22-Окт-2014 22:48

[Профиль]  [ЛС] 
Показать сообщения:    
Ответить на тему

Текущее время: 22-Авг 04:49

Часовой пояс: UTC + 5



Вы не можете начинать темы
Вы не можете отвечать на сообщения
Вы не можете редактировать свои сообщения
Вы не можете удалять свои сообщения
Вы не можете голосовать в опросах
Вы не можете прикреплять файлы к сообщениям
Вы не можете скачивать файлы