Удар / Kick (Саджид Надьядвала / Sajid Nadiadwala) [2014, Индия, Боевик, триллер, мелодрама, HDRip] VO (R.A.I.M.)

Ответить на тему
 

Suxrob89 ®

Стаж: 7 лет

Сообщений: 933

Симпатии: 564

-Удар / Kick- Страна: Индия
Жанр: Боевик, триллер, мелодрама
Год выпуска: 2014
Продолжительность: 02:26:50
Язык: Хинди
Перевод: Одноголосый закадровый - RAIM
Cубтитры: Нет
Перевод и редакция: Honey&Haseena-Режиссер: Саджид Надьядвала / Sajid Nadiadwala-В ролях: Салман Кхан, Жаклин Фернандес, Навазуддин Сиддики, Рандип Худа, Митхун Чакраборти, Арчана Пуран Сингх, Сумона Чакраварти, Санджай Мишра, Саурабх Шукла, Раджшри Дешпанде, Раджит Капур, Випин Шарма, Роки Верма, Наргис Факхри (камео)-Описание: Шайна работает психиатром и живёт в Польше вместе со своими родными. Однажды, ее отец, обеспокоенный скорее выдать замуж свою дочь, просит встретить с аэропорта Химаншу Тьяги - сына своего сослуживца. Встретившись, молодые сразу повествуют друг другу о самых главных проблемах в их жизни, Шайна - об экс-бойфренде Деви Лал Сингхе, а Химаншу - о неуловимом грабителе по имени Дьявол...(c) Honey- -Качество видео: HDRip (исх. BDRip 1080p [DDR])
Формат видео: AVI
Видео: 720x304 (2.37:1), 23.976 fps, XviD build 50 ~1284 kbps avg, 0.24 bit/pixel
Аудио: 48 kHz, MPEG Layer 3, 2 ch, ~128.00 kbps-

MI

General
Complete name : C:\INDIYA\Udar.2014.HDRip.XviD-soso4eg.avi
Format : AVI
Format/Info : Audio Video Interleave
File size : 1.46 GiB
Duration : 2h 26mn
Overall bit rate : 1 419 Kbps
Movie name : Kick.2014.HDRip.XviD-soso4eg
Director : soso4eg
Writing application : VirtualDubMod 1.5.10.3 | www.virtualdub-fr.org || (build 2550/release)
Original source form/Name : Hindi
Copyright : специально для BitTorrent трекер RuTracker.org (ex torrents.ru)
Comment : пер. R.A.I.M. по суб. Honey&Haseena
Video
ID : 0
Format : MPEG-4 Visual
Format profile : Advanced [email protected]
Format settings, BVOP : 1
Format settings, QPel : No
Format settings, GMC : No warppoints
Format settings, Matrix : Default (H.263)
Codec ID : XVID
Codec ID/Hint : XviD
Duration : 2h 26mn
Bit rate : 1 285 Kbps
Width : 720 pixels
Height : 304 pixels
Display aspect ratio : 2.35:1
Frame rate : 23.976 fps
Color space : YUV
Chroma subsampling : 4:2:0
Bit depth : 8 bits
Scan type : Progressive
Compression mode : Lossy
Bits/(Pixel*Frame) : 0.245
Stream size : 1.32 GiB (91%)
Writing library : XviD 1.2.1 (UTC 2008-12-04)
Audio
ID : 1
Format : MPEG Audio
Format version : Version 1
Format profile : Layer 3
Mode : Joint stereo
Mode extension : MS Stereo
Codec ID : 55
Codec ID/Hint : MP3
Duration : 2h 24mn
Bit rate mode : Constant
Bit rate : 128 Kbps
Channel count : 2 channels
Sampling rate : 48.0 KHz
Compression mode : Lossy
Stream size : 132 MiB (9%)
Alignment : Aligned on interleaves
Interleave, duration : 43 ms (1.02 video frame)
Interleave, preload duration : 504 ms
Writing library : LAME3.99r
Encoding settings : -m j -V 4 -q 3 -lowpass 17 -b 128

Скриншот с названием:

Скриншоты

Создавать темы 21-Окт-2014 09:00

[Профиль]  [ЛС] 
Показать сообщения:    
Ответить на тему

Текущее время: 18-Авг 06:06

Часовой пояс: UTC + 5



Вы не можете начинать темы
Вы не можете отвечать на сообщения
Вы не можете редактировать свои сообщения
Вы не можете удалять свои сообщения
Вы не можете голосовать в опросах
Вы не можете прикреплять файлы к сообщениям
Вы не можете скачивать файлы