Трудный день / Kkeut-kka-ji-gan-da (Ким Сон Хун) [2014 г., боевик, триллер, криминал, HDTVRip]

Ответить на тему
 

lotto ®

Стаж: 7 лет 9 месяцев

Сообщений: 221

Симпатии: 409

Трудный день / Kkeut-kka-ji-gan-da-- Год выпуска: 2014
Страна: Корея Южная
Жанр: боевик, триллер, криминал
Продолжительность: 01:50:54
Перевод: Любительский (двухголосый) (DeadSno & den904)
--Режиссер: Ким Сон Хун--В ролях: Ли Сон Гюн, Чжин Ун Чо, Чон Ман Сик, Шин Дон Ми, Син Чжон Гын--Описание: Возвращаясь с похорон своей матери, детектив отдела специальных преступлений Го Гон Су попадает в аварию, в результате которой погибает человек. Произошедшая авария может мгновенно поставить крест на карьере, разрушив всю его жизнь. Для того, чтобы скрыть свое преступление, он прячет тело погибшего внутри гроба матери. Через несколько дней, факт преступления, совершенного Гон Су фиксируется в полиции, расследование этого дела и поиск виновного лица поручено его напарнику. Гон Су впадает в панику, потому что медленно, шаг за шагом, его напарник раскрывает все больше деталей той аварии. Что еще хуже, объявляется свидетель аварии, не просто осложняющий жизнь Гон Су, но и ставящий его жизнь под угрозу, в желании заставить того заплатить за ошибку…-- --Качество: HDTVRip
Формат: AVI
Видео кодек: XviD
Аудио кодек: AC3
Видео: XVID, 1315 Кбит/сек, 720x304
Аудио: AC3, 6 ch, 448 Кбит/с - русский

MediaInfo

Video
ID : 0
Format : MPEG-4 Visual
Format profile : Advanced [email protected]
Format settings, BVOP : Yes
Format settings, QPel : No
Format settings, GMC : No warppoints
Format settings, Matrix : Default (MPEG)
Codec ID : DX50
Codec ID/Hint : DivX 5
Duration : 1h 50mn
Bit rate : 1 315 Kbps
Width : 720 pixels
Height : 304 pixels
Display aspect ratio : 2.35:1
Frame rate : 23.976 fps
Color space : YUV
Chroma subsampling : 4:2:0
Bit depth : 8 bits
Scan type : Progressive
Compression mode : Lossy
Bits/(Pixel*Frame) : 0.251
Stream size : 1.02 GiB (74%)
Writing library : XviD 1.2.1 (UTC 2008-12-04)
Audio
ID : 1
Format : AC-3
Format/Info : Audio Coding 3
Mode extension : CM (complete main)
Format settings, Endianness : Big
Codec ID : 2000
Duration : 1h 50mn
Bit rate mode : Constant
Bit rate : 448 Kbps
Channel(s) : 6 channels
Channel positions : Front: L C R, Side: L R, LFE
Sampling rate : 48.0 KHz
Bit depth : 16 bits
Compression mode : Lossy
Stream size : 355 MiB (25%)
Alignment : Aligned on interleaves
Interleave, duration : 64 ms (1.53 video frames)
Interleave, preload duration : 192 ms

Скриншоты





Создавать темы 22-Окт-2014 09:04

[Профиль]  [ЛС] 

FoxSage

Стаж: 4 года 3 месяца

Сообщений: 197

Симпатии: 19

lotto, Спасибо
Классный фильм. Всем советую. 10 из 10

Создавать темы 28-Фев-2015 18:43

[Профиль]  [ЛС] 
Показать сообщения:    
Ответить на тему

Текущее время: 18-Окт 12:31

Часовой пояс: UTC + 5



Вы не можете начинать темы
Вы не можете отвечать на сообщения
Вы не можете редактировать свои сообщения
Вы не можете удалять свои сообщения
Вы не можете голосовать в опросах
Вы не можете прикреплять файлы к сообщениям
Вы не можете скачивать файлы